  0
SECTION
  2
HEADER
  9
$ACADVER
  1
AC1018
  9
$ACADMAINTVER
 70
     0
  9
$DWGCODEPAGE
  3
ANSI_1257
  9
$INSBASE
 10
0.0
 20
0.0
 30
0.0
  9
$EXTMIN
 10
32.20281349989932
 20
-265.2745502956564
 30
0.0
  9
$EXTMAX
 10
1.815532425235925E+99
 20
467.6662870389633
 30
0.0
  9
$LIMMIN
 10
0.0
 20
0.0
  9
$LIMMAX
 10
12.0
 20
9.0
  9
$ORTHOMODE
 70
     1
  9
$REGENMODE
 70
     1
  9
$FILLMODE
 70
     1
  9
$QTEXTMODE
 70
     0
  9
$MIRRTEXT
 70
     0
  9
$LTSCALE
 40
1.0
  9
$ATTMODE
 70
     1
  9
$TEXTSIZE
 40
0.2
  9
$TRACEWID
 40
0.05
  9
$TEXTSTYLE
  7
STANDARD
  9
$CLAYER
  8
PAGR
  9
$CELTYPE
  6
ByLayer
  9
$CECOLOR
 62
   256
  9
$CELTSCALE
 40
1.0
  9
$DISPSILH
 70
     0
  9
$DIMSCALE
 40
6.0
  9
$DIMASZ
 40
1.0
  9
$DIMEXO
 40
0.0
  9
$DIMDLI
 40
6.75
  9
$DIMRND
 40
0.0
  9
$DIMDLE
 40
0.0
  9
$DIMEXE
 40
1.0
  9
$DIMTP
 40
0.0
  9
$DIMTM
 40
0.0
  9
$DIMTXT
 40
2.0
  9
$DIMCEN
 40
2.5
  9
$DIMTSZ
 40
0.0
  9
$DIMTOL
 70
     0
  9
$DIMLIM
 70
     0
  9
$DIMTIH
 70
     0
  9
$DIMTOH
 70
     0
  9
$DIMSE1
 70
     0
  9
$DIMSE2
 70
     0
  9
$DIMTAD
 70
     1
  9
$DIMZIN
 70
     8
  9
$DIMBLK
  1

  9
$DIMASO
 70
     1
  9
$DIMSHO
 70
     1
  9
$DIMPOST
  1

  9
$DIMAPOST
  1

  9
$DIMALT
 70
     0
  9
$DIMALTD
 70
     3
  9
$DIMALTF
 40
0.03937007874016
  9
$DIMLFAC
 40
1.0
  9
$DIMTOFL
 70
     1
  9
$DIMTVP
 40
0.0
  9
$DIMTIX
 70
     0
  9
$DIMSOXD
 70
     0
  9
$DIMSAH
 70
     0
  9
$DIMBLK1
  1

  9
$DIMBLK2
  1

  9
$DIMSTYLE
  2
ISO-25
  9
$DIMCLRD
 70
     0
  9
$DIMCLRE
 70
     0
  9
$DIMCLRT
 70
     0
  9
$DIMTFAC
 40
1.0
  9
$DIMGAP
 40
0.5
  9
$DIMJUST
 70
     0
  9
$DIMSD1
 70
     0
  9
$DIMSD2
 70
     0
  9
$DIMTOLJ
 70
     1
  9
$DIMTZIN
 70
     0
  9
$DIMALTZ
 70
     0
  9
$DIMALTTZ
 70
     0
  9
$DIMUPT
 70
     0
  9
$DIMDEC
 70
     4
  9
$DIMTDEC
 70
     4
  9
$DIMALTU
 70
     2
  9
$DIMALTTD
 70
     3
  9
$DIMTXSTY
  7
STANDARD
  9
$DIMAUNIT
 70
     0
  9
$DIMADEC
 70
     0
  9
$DIMALTRND
 40
0.0
  9
$DIMAZIN
 70
     0
  9
$DIMDSEP
 70
    46
  9
$DIMATFIT
 70
     3
  9
$DIMFRAC
 70
     0
  9
$DIMLDRBLK
  1

  9
$DIMLUNIT
 70
     2
  9
$DIMLWD
 70
    -2
  9
$DIMLWE
 70
    -2
  9
$DIMTMOVE
 70
     2
  9
$LUNITS
 70
     2
  9
$LUPREC
 70
     4
  9
$SKETCHINC
 40
0.1
  9
$FILLETRAD
 40
3.0
  9
$AUNITS
 70
     0
  9
$AUPREC
 70
     0
  9
$MENU
  1
.
  9
$ELEVATION
 40
0.0
  9
$PELEVATION
 40
0.0
  9
$THICKNESS
 40
0.0
  9
$LIMCHECK
 70
     0
  9
$CHAMFERA
 40
0.0
  9
$CHAMFERB
 40
0.0
  9
$CHAMFERC
 40
0.0
  9
$CHAMFERD
 40
0.0
  9
$SKPOLY
 70
     0
  9
$TDCREATE
 40
2453724.351156864
  9
$TDUCREATE
 40
2453724.226156864
  9
$TDUPDATE
 40
2455671.505955312
  9
$TDUUPDATE
 40
2455671.380955312
  9
$TDINDWG
 40
0.5979745602
  9
$TDUSRTIMER
 40
0.5979742014
  9
$USRTIMER
 70
     1
  9
$ANGBASE
 50
0.0
  9
$ANGDIR
 70
     0
  9
$PDMODE
 70
     3
  9
$PDSIZE
 40
0.0
  9
$PLINEWID
 40
0.0
  9
$SPLFRAME
 70
     0
  9
$SPLINETYPE
 70
     6
  9
$SPLINESEGS
 70
     8
  9
$HANDSEED
  5
2EA4
  9
$SURFTAB1
 70
     6
  9
$SURFTAB2
 70
     6
  9
$SURFTYPE
 70
     6
  9
$SURFU
 70
     6
  9
$SURFV
 70
     6
  9
$UCSBASE
  2

  9
$UCSNAME
  2

  9
$UCSORG
 10
-6228.65756285978
 20
3436.293850650279
 30
0.0
  9
$UCSXDIR
 10
1.0
 20
0.0
 30
0.0
  9
$UCSYDIR
 10
0.0
 20
1.0
 30
0.0
  9
$UCSORTHOREF
  2

  9
$UCSORTHOVIEW
 70
     0
  9
$UCSORGTOP
 10
0.0
 20
0.0
 30
0.0
  9
$UCSORGBOTTOM
 10
0.0
 20
0.0
 30
0.0
  9
$UCSORGLEFT
 10
0.0
 20
0.0
 30
0.0
  9
$UCSORGRIGHT
 10
0.0
 20
0.0
 30
0.0
  9
$UCSORGFRONT
 10
0.0
 20
0.0
 30
0.0
  9
$UCSORGBACK
 10
0.0
 20
0.0
 30
0.0
  9
$PUCSBASE
  2

  9
$PUCSNAME
  2

  9
$PUCSORG
 10
0.0
 20
0.0
 30
0.0
  9
$PUCSXDIR
 10
1.0
 20
0.0
 30
0.0
  9
$PUCSYDIR
 10
0.0
 20
1.0
 30
0.0
  9
$PUCSORTHOREF
  2

  9
$PUCSORTHOVIEW
 70
     0
  9
$PUCSORGTOP
 10
0.0
 20
0.0
 30
0.0
  9
$PUCSORGBOTTOM
 10
0.0
 20
0.0
 30
0.0
  9
$PUCSORGLEFT
 10
0.0
 20
0.0
 30
0.0
  9
$PUCSORGRIGHT
 10
0.0
 20
0.0
 30
0.0
  9
$PUCSORGFRONT
 10
0.0
 20
0.0
 30
0.0
  9
$PUCSORGBACK
 10
0.0
 20
0.0
 30
0.0
  9
$USERI1
 70
     0
  9
$USERI2
 70
     0
  9
$USERI3
 70
     0
  9
$USERI4
 70
     0
  9
$USERI5
 70
     0
  9
$USERR1
 40
0.0
  9
$USERR2
 40
0.0
  9
$USERR3
 40
0.0
  9
$USERR4
 40
0.0
  9
$USERR5
 40
0.0
  9
$WORLDVIEW
 70
     1
  9
$SHADEDGE
 70
     3
  9
$SHADEDIF
 70
    70
  9
$TILEMODE
 70
     1
  9
$MAXACTVP
 70
    64
  9
$PINSBASE
 10
0.0
 20
0.0
 30
0.0
  9
$PLIMCHECK
 70
     0
  9
$PEXTMIN
 10
112.6261636149493
 20
48.9486180147278
 30
-0.0000000000112498
  9
$PEXTMAX
 10
3472.847191338762
 20
2424.9545679228
 30
0.0000000000002956
  9
$PLIMMIN
 10
83.75501845777804
 20
16.24034600054733
  9
$PLIMMAX
 10
3536.490127895941
 20
2457.662828568221
  9
$UNITMODE
 70
     0
  9
$VISRETAIN
 70
     1
  9
$PLINEGEN
 70
     0
  9
$PSLTSCALE
 70
     1
  9
$TREEDEPTH
 70
  3020
  9
$CMLSTYLE
  2
Standard
  9
$CMLJUST
 70
     0
  9
$CMLSCALE
 40
1.0
  9
$PROXYGRAPHICS
 70
     1
  9
$MEASUREMENT
 70
     0
  9
$CELWEIGHT
370
    -1
  9
$ENDCAPS
280
     0
  9
$JOINSTYLE
280
     0
  9
$LWDISPLAY
290
     0
  9
$INSUNITS
 70
     0
  9
$HYPERLINKBASE
  1

  9
$STYLESHEET
  1

  9
$XEDIT
290
     1
  9
$CEPSNTYPE
380
     0
  9
$PSTYLEMODE
290
     1
  9
$FINGERPRINTGUID
  2
{6DE53997-2A66-4BC4-AE4A-49EE09AED684}
  9
$VERSIONGUID
  2
{397746FB-761A-448C-8F08-82CFCC28F57E}
  9
$EXTNAMES
290
     1
  9
$PSVPSCALE
 40
0.0
  9
$OLESTARTUP
290
     0
  9
$SORTENTS
280
   127
  9
$INDEXCTL
280
     0
  9
$HIDETEXT
280
     0
  9
$XCLIPFRAME
290
     0
  9
$HALOGAP
280
     0
  9
$OBSCOLOR
 70
   257
  9
$OBSLTYPE
280
     0
  9
$INTERSECTIONDISPLAY
280
     0
  9
$INTERSECTIONCOLOR
 70
   257
  9
$DIMASSOC
280
     1
  9
$PROJECTNAME
  1

  0
ENDSEC
  0
SECTION
  2
CLASSES
  0
CLASS
  1
ACDBDICTIONARYWDFLT
  2
AcDbDictionaryWithDefault
  3
ObjectDBX Classes
 90
        0
 91
        1
280
     0
281
     0
  0
ENDSEC
  0
SECTION
  2
TABLES
  0
TABLE
  2
VPORT
  5
10E4
330
0
100
AcDbSymbolTable
 70
     2
  0
VPORT
  5
2EA3
330
10E4
100
AcDbSymbolTableRecord
100
AcDbViewportTableRecord
  2
*Active
 70
     0
 10
0.0
 20
0.0
 11
1.0
 21
1.0
 12
3700.669249416679
 22
-109.00045552355
 13
0.0
 23
0.0
 14
0.5
 24
0.5
 15
0.5
 25
0.5
 16
0.0
 26
0.0
 36
1.0
 17
0.0
 27
0.0
 37
0.0
 40
702.0344782563625
 41
2.027231467473524
 42
50.0
 43
0.0
 44
0.0
 50
0.0
 51
0.0
 71
     0
 72
  1000
 73
     1
 74
     3
 75
     0
 76
     0
 77
     0
 78
     0
281
     0
 65
     1
110
0.0
120
0.0
130
0.0
111
1.0
121
0.0
131
0.0
112
0.0
122
1.0
132
0.0
 79
     0
146
0.0
  0
ENDTAB
  0
TABLE
  2
LTYPE
  5
10E1
330
0
100
AcDbSymbolTable
 70
     5
  0
LTYPE
  5
10EF
330
10E1
100
AcDbSymbolTableRecord
100
AcDbLinetypeTableRecord
  2
ByBlock
 70
     0
  3

 72
    65
 73
     0
 40
0.0
  0
LTYPE
  5
10F0
330
10E1
100
AcDbSymbolTableRecord
100
AcDbLinetypeTableRecord
  2
ByLayer
 70
     0
  3

 72
    65
 73
     0
 40
0.0
  0
LTYPE
  5
10F1
330
10E1
100
AcDbSymbolTableRecord
100
AcDbLinetypeTableRecord
  2
CONTINUOUS
 70
     0
  3
Solid line
 72
    65
 73
     0
 40
0.0
  0
LTYPE
  5
1102
330
10E1
100
AcDbSymbolTableRecord
100
AcDbLinetypeTableRecord
  2
CENTER2
 70
     0
  3
Center (.5x) ___ _ ___ _ ___ _ ___ _ ___ _ ___
 72
    65
 73
     4
 40
28.575
 49
19.05
 74
     0
 49
-3.174999999999998
 74
     0
 49
3.174999999999998
 74
     0
 49
-3.174999999999998
 74
     0
  0
LTYPE
  5
13CB
330
10E1
100
AcDbSymbolTableRecord
100
AcDbLinetypeTableRecord
  2
DASHEDX2
 70
     0
  3
Dashed (2x) ____  ____  ____  ____  ____  ___
 72
    65
 73
     2
 40
38.1
 49
25.4
 74
     0
 49
-12.7
 74
     0
  0
LTYPE
  5
1756
330
10E1
100
AcDbSymbolTableRecord
100
AcDbLinetypeTableRecord
  2
DASHED
 70
     0
  3
Dashed __ __ __ __ __ __ __ __ __ __ __ __ __ _
 72
    65
 73
     2
 40
19.05
 49
12.7
 74
     0
 49
-6.349999999999999
 74
     0
  0
LTYPE
  5
1FAD
330
10E1
100
AcDbSymbolTableRecord
100
AcDbLinetypeTableRecord
  2
ACAD_ISO03W100
 70
     0
  3
ISO dash space __    __    __    __    __    __
 72
    65
 73
     2
 40
30.0
 49
12.0
 74
     0
 49
-18.0
 74
     0
  0
ENDTAB
  0
TABLE
  2
LAYER
  5
10DE
330
0
100
AcDbSymbolTable
 70
    10
  0
LAYER
  5
10EC
330
10DE
100
AcDbSymbolTableRecord
100
AcDbLayerTableRecord
  2
0
 70
     0
 62
     7
  6
CONTINUOUS
370
    -3
390
10EB
  0
LAYER
  5
1100
330
10DE
100
AcDbSymbolTableRecord
100
AcDbLayerTableRecord
  2
ASYS
 70
     0
 62
     1
  6
CENTER2
370
    -3
390
10EB
  0
LAYER
  5
1103
330
10DE
100
AcDbSymbolTableRecord
100
AcDbLayerTableRecord
  2
PAGR
 70
     0
 62
     7
  6
CONTINUOUS
370
    35
390
10EB
  0
LAYER
  5
1104
330
10DE
100
AcDbSymbolTableRecord
100
AcDbLayerTableRecord
  2
TEKSTAS
 70
     0
 62
     5
  6
CONTINUOUS
370
    -3
390
10EB
  0
LAYER
  5
1105
330
10DE
100
AcDbSymbolTableRecord
100
AcDbLayerTableRecord
  2
MATM
 70
     0
 62
     7
  6
CONTINUOUS
370
    -3
390
10EB
  0
LAYER
  5
1106
330
10DE
100
AcDbSymbolTableRecord
100
AcDbLayerTableRecord
  2
DEFPOINTS
 70
     0
 62
     7
  6
CONTINUOUS
290
     0
370
    -3
390
10EB
  0
LAYER
  5
13CC
330
10DE
100
AcDbSymbolTableRecord
100
AcDbLayerTableRecord
  2
Lenk
 70
     0
 62
     3
  6
DASHEDX2
370
    -3
390
10EB
  0
LAYER
  5
1757
330
10DE
100
AcDbSymbolTableRecord
100
AcDbLayerTableRecord
  2
Nemat
 70
     0
 62
     4
  6
DASHED
370
    -3
390
10EB
  0
LAYER
  5
1FAE
330
10DE
100
AcDbSymbolTableRecord
100
AcDbLayerTableRecord
  2
KAMPAS
 70
     7
 62
    -1
  6
CONTINUOUS
290
     0
370
    -3
390
10EB
  0
LAYER
  5
1FAF
330
10DE
100
AcDbSymbolTableRecord
100
AcDbLayerTableRecord
  2
ISKL
 70
     7
 62
    -5
  6
CONTINUOUS
290
     0
370
    -3
390
10EB
  0
ENDTAB
  0
TABLE
  2
STYLE
  5
10DF
330
0
100
AcDbSymbolTable
 70
     1
  0
STYLE
  5
10ED
330
10DF
100
AcDbSymbolTableRecord
100
AcDbTextStyleTableRecord
  2
STANDARD
 70
     0
 40
0.0
 41
1.0
 50
0.0
 71
     0
 42
0.2
  3
TIMES.TTF
  4

1001
ACAD
1000
Times New Roman
1071
       18
  0
ENDTAB
  0
TABLE
  2
VIEW
  5
10E2
330
0
100
AcDbSymbolTable
 70
     0
  0
ENDTAB
  0
TABLE
  2
UCS
  5
10E3
330
0
100
AcDbSymbolTable
 70
     0
  0
ENDTAB
  0
TABLE
  2
APPID
  5
10E5
330
0
100
AcDbSymbolTable
 70
     1
  0
APPID
  5
10EE
330
10E5
100
AcDbSymbolTableRecord
100
AcDbRegAppTableRecord
  2
ACAD
 70
     0
  0
ENDTAB
  0
TABLE
  2
DIMSTYLE
  5
10E6
330
0
100
AcDbSymbolTable
 70
     2
100
AcDbDimStyleTable
 71
     2
340
1108
340
1107
  0
DIMSTYLE
105
1107
330
10E6
100
AcDbSymbolTableRecord
100
AcDbDimStyleTableRecord
  2
STANDARD
 70
     0
279
     2
340
10ED
  0
DIMSTYLE
105
1108
102
{ACAD_REACTORS
330
1C7
330
248
330
247
330
1D0
330
1C0
330
299D
330
1EF6
330
1EF8
330
2343
330
2974
102
}
330
10E6
100
AcDbSymbolTableRecord
100
AcDbDimStyleTableRecord
  2
ISO-25
 70
     0
 40
6.0
 41
1.0
 42
0.0
 43
6.75
 44
1.0
 73
     0
 74
     0
 77
     1
 78
     8
140
2.0
141
2.5
143
0.03937007874016
147
0.5
171
     3
172
     1
274
     3
279
     2
340
10ED
  0
ENDTAB
  0
TABLE
  2
BLOCK_RECORD
  5
10DD
330
0
100
AcDbSymbolTable
 70
    26
  0
BLOCK_RECORD
  5
10FC
330
10DD
100
AcDbSymbolTableRecord
100
AcDbBlockTableRecord
  2
*Model_Space
340
10FF
  0
BLOCK_RECORD
  5
1FB4
330
10DD
100
AcDbSymbolTableRecord
100
AcDbBlockTableRecord
  2
*Paper_Space
340
1FB3
  0
BLOCK_RECORD
  5
110A
330
10DD
100
AcDbSymbolTableRecord
100
AcDbBlockTableRecord
  2
$MODEL_SPACE
340
0
  0
BLOCK_RECORD
  5
110C
330
10DD
100
AcDbSymbolTableRecord
100
AcDbBlockTableRecord
  2
$PAPER_SPACE
340
0
  0
BLOCK_RECORD
  5
11B0
330
10DD
100
AcDbSymbolTableRecord
100
AcDbBlockTableRecord
  2
*D2
340
0
  0
BLOCK_RECORD
  5
11DB
330
10DD
100
AcDbSymbolTableRecord
100
AcDbBlockTableRecord
  2
*D3
340
0
  0
BLOCK_RECORD
  5
11E7
330
10DD
100
AcDbSymbolTableRecord
100
AcDbBlockTableRecord
  2
*D4
340
0
  0
BLOCK_RECORD
  5
11F5
330
10DD
100
AcDbSymbolTableRecord
100
AcDbBlockTableRecord
  2
*D5
340
0
  0
BLOCK_RECORD
  5
1202
330
10DD
100
AcDbSymbolTableRecord
100
AcDbBlockTableRecord
  2
*D6
340
0
  0
BLOCK_RECORD
  5
240E
330
10DD
100
AcDbSymbolTableRecord
100
AcDbBlockTableRecord
  2
*Paper_Space16
340
246F
  0
BLOCK_RECORD
  5
10F8
330
10DD
100
AcDbSymbolTableRecord
100
AcDbBlockTableRecord
  2
*Paper_Space17
340
10FB
  0
BLOCK_RECORD
  5
299E
330
10DD
100
AcDbSymbolTableRecord
100
AcDbBlockTableRecord
  2
*D24
340
0
  0
ENDTAB
  0
ENDSEC
  0
SECTION
  2
BLOCKS
  0
BLOCK
  5
10FD
330
10FC
100
AcDbEntity
  8
0
100
AcDbBlockBegin
  2
*Model_Space
 70
     0
 10
0.0
 20
0.0
 30
0.0
  3
*Model_Space
  1

  0
ENDBLK
  5
10FE
330
10FC
100
AcDbEntity
  8
0
100
AcDbBlockEnd
  0
BLOCK
  5
2013
330
1FB4
100
AcDbEntity
 67
     1
  8
0
100
AcDbBlockBegin
  2
*Paper_Space
 70
     0
 10
0.0
 20
0.0
 30
0.0
  3
*Paper_Space
  1

  0
ENDBLK
  5
2014
330
1FB4
100
AcDbEntity
 67
     1
  8
0
100
AcDbBlockEnd
  0
BLOCK
  5
110B
330
110A
100
AcDbEntity
  8
0
100
AcDbBlockBegin
  2
$MODEL_SPACE
 70
     0
 10
0.0
 20
0.0
 30
0.0
  3
$MODEL_SPACE
  1

  0
ENDBLK
  5
F92
330
110A
100
AcDbEntity
  8
0
100
AcDbBlockEnd
  0
BLOCK
  5
110D
330
110C
100
AcDbEntity
  8
0
100
AcDbBlockBegin
  2
$PAPER_SPACE
 70
     0
 10
0.0
 20
0.0
 30
0.0
  3
$PAPER_SPACE
  1

  0
ENDBLK
  5
F8E
330
110C
100
AcDbEntity
  8
0
100
AcDbBlockEnd
  0
BLOCK
  5
11BB
330
11B0
100
AcDbEntity
  8
0
100
AcDbBlockBegin
  2
*D2
 70
     1
 10
0.0
 20
0.0
 30
0.0
  3
*D2
  1

  0
LINE
  5
2D23
330
11B0
100
AcDbEntity
  8
MATM
 62
     0
370
    -2
100
AcDbLine
 10
390.678984180742
 20
250.264040036921
 30
0.0
 11
390.678984180742
 21
199.5125868304749
 31
0.0
  0
LINE
  5
2D24
330
11B0
100
AcDbEntity
  8
MATM
 62
     0
370
    -2
100
AcDbLine
 10
54.67898418074202
 20
250.264040036921
 30
0.0
 11
54.67898418074202
 21
199.5125868304749
 31
0.0
  0
LINE
  5
2D25
330
11B0
100
AcDbEntity
  8
MATM
 62
     0
370
    -2
100
AcDbLine
 10
384.678984180742
 20
205.5125868304749
 30
0.0
 11
245.4655739428186
 21
205.5125868304749
 31
0.0
  0
LINE
  5
2D26
330
11B0
100
AcDbEntity
  8
MATM
 62
     0
370
    -2
100
AcDbLine
 10
60.67898418074203
 20
205.5125868304749
 30
0.0
 11
199.8923944186657
 21
205.5125868304749
 31
0.0
  0
MTEXT
  5
2D27
330
11B0
100
AcDbEntity
  8
MATM
 62
     0
100
AcDbMText
 10
222.6789841807422
 20
205.5125868304749
 30
0.0
 40
12.0
 41
0.0
 71
     5
 72
     1
  1
\A1;H+40
 73
     1
 44
1.0
  0
SOLID
  5
2D28
330
11B0
100
AcDbEntity
  8
MATM
 62
     0
100
AcDbTrace
 10
384.678984180742
 20
206.5125868304749
 30
0.0
 11
384.678984180742
 21
204.5125868304749
 31
0.0
 12
390.678984180742
 22
205.5125868304749
 32
0.0
 13
390.678984180742
 23
205.5125868304749
 33
0.0
  0
SOLID
  5
2D29
330
11B0
100
AcDbEntity
  8
MATM
 62
     0
100
AcDbTrace
 10
60.67898418074203
 20
206.5125868304749
 30
0.0
 11
60.67898418074203
 21
204.5125868304749
 31
0.0
 12
54.67898418074202
 22
205.5125868304749
 32
0.0
 13
54.67898418074202
 23
205.5125868304749
 33
0.0
  0
POINT
  5
2D2A
330
11B0
100
AcDbEntity
  8
DEFPOINTS
 62
     0
100
AcDbPoint
 10
390.678984180742
 20
250.264040036921
 30
0.0
  0
POINT
  5
2D2B
330
11B0
100
AcDbEntity
  8
DEFPOINTS
 62
     0
100
AcDbPoint
 10
54.67898418074202
 20
250.264040036921
 30
0.0
  0
POINT
  5
2D2C
330
11B0
100
AcDbEntity
  8
DEFPOINTS
 62
     0
100
AcDbPoint
 10
54.67898418074202
 20
205.5125868304749
 30
0.0
  0
ENDBLK
  5
11BC
330
11B0
100
AcDbEntity
  8
0
100
AcDbBlockEnd
  0
BLOCK
  5
11E5
330
11DB
100
AcDbEntity
  8
0
100
AcDbBlockBegin
  2
*D3
 70
     1
 10
0.0
 20
0.0
 30
0.0
  3
*D3
  1

  0
LINE
  5
2BBB
330
11DB
100
AcDbEntity
  8
MATM
 62
     0
370
    -2
100
AcDbLine
 10
372.678984180742
 20
418.2640400369208
 30
0.0
 11
438.0169392097123
 21
418.2640400369207
 31
0.0
  0
LINE
  5
2BBC
330
11DB
100
AcDbEntity
  8
MATM
 62
     0
370
    -2
100
AcDbLine
 10
372.678984180742
 20
232.264040036921
 30
0.0
 11
438.0169392097123
 21
232.264040036921
 31
0.0
  0
LINE
  5
2BBD
330
11DB
100
AcDbEntity
  8
MATM
 62
     0
370
    -2
100
AcDbLine
 10
432.0169392097123
 20
412.2640400369207
 30
0.0
 11
432.0169392097122
 21
238.264040036921
 31
0.0
  0
SOLID
  5
2BBE
330
11DB
100
AcDbEntity
  8
MATM
 62
     0
100
AcDbTrace
 10
431.0169392097123
 20
412.2640400369207
 30
0.0
 11
433.0169392097123
 21
412.2640400369207
 31
0.0
 12
432.0169392097123
 22
418.2640400369207
 32
0.0
 13
432.0169392097123
 23
418.2640400369207
 33
0.0
  0
SOLID
  5
2BBF
330
11DB
100
AcDbEntity
  8
MATM
 62
     0
100
AcDbTrace
 10
431.0169392097122
 20
238.264040036921
 30
0.0
 11
433.0169392097123
 21
238.264040036921
 31
0.0
 12
432.0169392097122
 22
232.264040036921
 32
0.0
 13
432.0169392097122
 23
232.264040036921
 33
0.0
  0
MTEXT
  5
2BC0
330
11DB
100
AcDbEntity
  8
MATM
 62
     0
100
AcDbMText
 10
422.9131180128844
 20
325.264040036921
 30
0.0
 40
12.0
 41
0.0
 71
     5
 72
     1
  1
\A1;{\fTimes New Roman|b0|i0|c0|p18;H\fTimes New Roman|b0|i0|c186|p18;+40}
 11
0.0000000000000001
 21
1.0
 31
0.0
 73
     1
 44
1.0
  0
POINT
  5
2BC1
330
11DB
100
AcDbEntity
  8
DEFPOINTS
 62
     0
100
AcDbPoint
 10
372.678984180742
 20
418.2640400369208
 30
0.0
  0
POINT
  5
2BC2
330
11DB
100
AcDbEntity
  8
DEFPOINTS
 62
     0
100
AcDbPoint
 10
372.678984180742
 20
232.264040036921
 30
0.0
  0
POINT
  5
2BC3
330
11DB
100
AcDbEntity
  8
DEFPOINTS
 62
     0
100
AcDbPoint
 10
432.0169392097122
 20
232.264040036921
 30
0.0
  0
ENDBLK
  5
11E6
330
11DB
100
AcDbEntity
  8
0
100
AcDbBlockEnd
  0
BLOCK
  5
11F2
330
11E7
100
AcDbEntity
  8
0
100
AcDbBlockBegin
  2
*D4
 70
     1
 10
0.0
 20
0.0
 30
0.0
  3
*D4
  1

  0
LINE
  5
2A48
330
11E7
100
AcDbEntity
  8
MATM
 62
     0
370
    -2
100
AcDbLine
 10
390.678984180742
 20
400.2640400369207
 30
0.0
 11
415.1451923336645
 21
400.2640400369207
 31
0.0
  0
LINE
  5
2A49
330
11E7
100
AcDbEntity
  8
MATM
 62
     0
370
    -2
100
AcDbLine
 10
390.678984180742
 20
250.264040036921
 30
0.0
 11
415.1451923336644
 21
250.264040036921
 31
0.0
  0
LINE
  5
2A4A
330
11E7
100
AcDbEntity
  8
MATM
 62
     0
370
    -2
100
AcDbLine
 10
409.1451923336645
 20
394.2640400369208
 30
0.0
 11
409.1451923336644
 21
334.3289282849383
 31
0.0
  0
LINE
  5
2A4B
330
11E7
100
AcDbEntity
  8
MATM
 62
     0
370
    -2
100
AcDbLine
 10
409.1451923336644
 20
256.264040036921
 30
0.0
 11
409.1451923336644
 21
316.1991517889036
 31
0.0
  0
MTEXT
  5
2A4C
330
11E7
100
AcDbEntity
  8
MATM
 62
     0
100
AcDbMText
 10
409.1451923336645
 20
325.2640400369211
 30
0.0
 40
12.0
 41
0.0
 71
     5
 72
     1
  1
\A1;{\fTimes New Roman|b0|i0|c0|p18;H}
 11
0.0000000000000001
 21
1.0
 31
0.0
 73
     1
 44
1.0
  0
SOLID
  5
2A4D
330
11E7
100
AcDbEntity
  8
MATM
 62
     0
100
AcDbTrace
 10
408.1451923336644
 20
394.2640400369208
 30
0.0
 11
410.1451923336645
 21
394.2640400369208
 31
0.0
 12
409.1451923336645
 22
400.2640400369207
 32
0.0
 13
409.1451923336645
 23
400.2640400369207
 33
0.0
  0
SOLID
  5
2A4E
330
11E7
100
AcDbEntity
  8
MATM
 62
     0
100
AcDbTrace
 10
408.1451923336644
 20
256.264040036921
 30
0.0
 11
410.1451923336644
 21
256.264040036921
 31
0.0
 12
409.1451923336644
 22
250.264040036921
 32
0.0
 13
409.1451923336644
 23
250.264040036921
 33
0.0
  0
POINT
  5
2A4F
330
11E7
100
AcDbEntity
  8
DEFPOINTS
 62
     0
100
AcDbPoint
 10
390.678984180742
 20
400.2640400369207
 30
0.0
  0
POINT
  5
2A50
330
11E7
100
AcDbEntity
  8
DEFPOINTS
 62
     0
100
AcDbPoint
 10
390.678984180742
 20
250.264040036921
 30
0.0
  0
POINT
  5
2A51
330
11E7
100
AcDbEntity
  8
DEFPOINTS
 62
     0
100
AcDbPoint
 10
409.1451923336644
 20
250.264040036921
 30
0.0
  0
ENDBLK
  5
11F3
330
11E7
100
AcDbEntity
  8
0
100
AcDbBlockEnd
  0
BLOCK
  5
1200
330
11F5
100
AcDbEntity
  8
0
100
AcDbBlockBegin
  2
*D5
 70
     1
 10
0.0
 20
0.0
 30
0.0
  3
*D5
  1

  0
LINE
  5
2C5A
330
11F5
100
AcDbEntity
  8
MATM
 62
     0
370
    -2
100
AcDbLine
 10
54.67898418074202
 20
36.8770450060731
 30
0.0
 11
36.11341191374213
 21
36.8770450060731
 31
0.0
  0
LINE
  5
2C5B
330
11F5
100
AcDbEntity
  8
MATM
 62
     0
370
    -2
100
AcDbLine
 10
54.67898418074202
 20
166.8770450060731
 30
0.0
 11
36.11341191374215
 21
166.8770450060731
 31
0.0
  0
LINE
  5
2C5C
330
11F5
100
AcDbEntity
  8
MATM
 62
     0
370
    -2
100
AcDbLine
 10
42.11341191374212
 20
42.8770450060731
 30
0.0
 11
42.11341191374214
 21
81.83815070181919
 31
0.0
  0
LINE
  5
2C5D
330
11F5
100
AcDbEntity
  8
MATM
 62
     0
370
    -2
100
AcDbLine
 10
42.11341191374216
 20
160.8770450060731
 30
0.0
 11
42.11341191374215
 21
121.9159393103268
 31
0.0
  0
MTEXT
  5
2C5E
330
11F5
100
AcDbEntity
  8
MATM
 62
     0
100
AcDbMText
 10
42.11341191374215
 20
101.877045006073
 30
0.0
 40
12.0
 41
0.0
 71
     5
 72
     1
  1
\A1;{\fTimes New Roman|b0|i0|c186|p18;95\H0.5556x;±0.5\fTimes New Roman|b0|i0|c0|p18;\H0.6x;}
 11
0.0000000000000001
 21
1.0
 31
0.0
 73
     1
 44
1.0
  0
SOLID
  5
2C5F
330
11F5
100
AcDbEntity
  8
MATM
 62
     0
100
AcDbTrace
 10
41.11341191374212
 20
42.8770450060731
 30
0.0
 11
43.11341191374213
 21
42.8770450060731
 31
0.0
 12
42.11341191374212
 22
36.8770450060731
 32
0.0
 13
42.11341191374212
 23
36.8770450060731
 33
0.0
  0
SOLID
  5
2C60
330
11F5
100
AcDbEntity
  8
MATM
 62
     0
100
AcDbTrace
 10
41.11341191374215
 20
160.8770450060731
 30
0.0
 11
43.11341191374215
 21
160.8770450060731
 31
0.0
 12
42.11341191374216
 22
166.8770450060731
 32
0.0
 13
42.11341191374216
 23
166.8770450060731
 33
0.0
  0
POINT
  5
2C61
330
11F5
100
AcDbEntity
  8
DEFPOINTS
 62
     0
100
AcDbPoint
 10
54.67898418074202
 20
36.8770450060731
 30
0.0
  0
POINT
  5
2C62
330
11F5
100
AcDbEntity
  8
DEFPOINTS
 62
     0
100
AcDbPoint
 10
54.67898418074202
 20
166.8770450060731
 30
0.0
  0
POINT
  5
2C63
330
11F5
100
AcDbEntity
  8
DEFPOINTS
 62
     0
100
AcDbPoint
 10
42.11341191374216
 20
166.8770450060731
 30
0.0
  0
ENDBLK
  5
1201
330
11F5
100
AcDbEntity
  8
0
100
AcDbBlockEnd
  0
BLOCK
  5
120C
330
1202
100
AcDbEntity
  8
0
100
AcDbBlockBegin
  2
*D6
 70
     1
 10
0.0
 20
0.0
 30
0.0
  3
*D6
  1

  0
LINE
  5
2D1A
330
1202
100
AcDbEntity
  8
MATM
 62
     0
370
    -2
100
AcDbLine
 10
372.678984180742
 20
232.264040036921
 30
0.0
 11
372.678984180742
 21
210.6245052343707
 31
0.0
  0
LINE
  5
2D1B
330
1202
100
AcDbEntity
  8
MATM
 62
     0
370
    -2
100
AcDbLine
 10
72.67898418074202
 20
232.264040036921
 30
0.0
 11
72.67898418074202
 21
210.6245052343707
 31
0.0
  0
LINE
  5
2D1C
330
1202
100
AcDbEntity
  8
MATM
 62
     0
370
    -2
100
AcDbLine
 10
366.678984180742
 20
216.6245052343707
 30
0.0
 11
78.67898418074202
 21
216.6245052343707
 31
0.0
  0
SOLID
  5
2D1D
330
1202
100
AcDbEntity
  8
MATM
 62
     0
100
AcDbTrace
 10
366.678984180742
 20
217.6245052343706
 30
0.0
 11
366.678984180742
 21
215.6245052343706
 31
0.0
 12
372.678984180742
 22
216.6245052343707
 32
0.0
 13
372.678984180742
 23
216.6245052343707
 33
0.0
  0
SOLID
  5
2D1E
330
1202
100
AcDbEntity
  8
MATM
 62
     0
100
AcDbTrace
 10
78.67898418074202
 20
217.6245052343706
 30
0.0
 11
78.67898418074202
 21
215.6245052343706
 31
0.0
 12
72.67898418074202
 22
216.6245052343707
 32
0.0
 13
72.67898418074202
 23
216.6245052343707
 33
0.0
  0
MTEXT
  5
2D1F
330
1202
100
AcDbEntity
  8
MATM
 62
     0
100
AcDbMText
 10
222.678984180742
 20
225.6245052343706
 30
0.0
 40
12.0
 41
0.0
 71
     5
 72
     1
  1
\A1;H
 73
     1
 44
1.0
  0
POINT
  5
2D20
330
1202
100
AcDbEntity
  8
DEFPOINTS
 62
     0
100
AcDbPoint
 10
372.678984180742
 20
232.264040036921
 30
0.0
  0
POINT
  5
2D21
330
1202
100
AcDbEntity
  8
DEFPOINTS
 62
     0
100
AcDbPoint
 10
72.67898418074202
 20
232.264040036921
 30
0.0
  0
POINT
  5
2D22
330
1202
100
AcDbEntity
  8
DEFPOINTS
 62
     0
100
AcDbPoint
 10
72.67898418074202
 20
216.6245052343707
 30
0.0
  0
ENDBLK
  5
120D
330
1202
100
AcDbEntity
  8
0
100
AcDbBlockEnd
  0
BLOCK
  5
240F
330
240E
100
AcDbEntity
  8
0
100
AcDbBlockBegin
  2
*Paper_Space16
 70
     0
 10
0.0
 20
0.0
 30
0.0
  3
*Paper_Space16
  1

  0
VIEWPORT
  5
2410
330
240E
100
AcDbEntity
  8
0
100
AcDbViewport
 10
1810.12257317686
 20
1236.951587284384
 30
0.0
 40
5724.206632873327
 41
2583.024986556599
 69
     0
 12
1810.12257317686
 22
1236.951587284384
 13
0.0
 23
0.0
 14
10.0
 24
10.0
 15
10.0
 25
10.0
 16
0.0
 26
0.0
 36
1.0
 17
0.0
 27
0.0
 37
0.0
 42
50.0
 43
0.0
 44
0.0
 45
2583.024986556599
 50
0.0
 51
0.0
 72
   100
331
1FAE
331
1FAF
 90
    32800
  1

281
     0
 71
     1
 74
     0
110
0.0
120
0.0
130
0.0
111
1.0
121
0.0
131
0.0
112
0.0
122
1.0
132
0.0
 79
     0
146
0.0
170
     0
  0
VIEWPORT
  5
2411
330
240E
100
AcDbEntity
  8
0
100
AcDbViewport
 10
1852.715862084503
 20
1236.951523537469
 30
0.0
 40
3160.0
 41
2296.0
 69
     0
 12
3640.413118056604
 22
82.8264221491224
 13
0.0
 23
0.0
 14
10.0
 24
10.0
 15
10.0
 25
10.0
 16
0.0
 26
0.0
 36
1.0
 17
0.0
 27
0.0
 37
0.0
 42
50.0
 43
0.0
 44
0.0
 45
756.7907340964016
 50
0.0
 51
0.0
 72
   100
 90
    32800
  1

281
     0
 71
     1
 74
     0
110
-6228.65756285978
120
3436.293850650279
130
0.0
111
1.0
121
0.0
131
0.0
112
0.0
122
1.0
132
0.0
 79
     0
146
0.0
170
     0
  0
LWPOLYLINE
  5
2412
330
240E
100
AcDbEntity
  8
0
100
AcDbPolyline
 90
        4
 70
     1
 43
4.0
 10
272.7158620845035
 20
88.95152353746926
 10
272.7158620845035
 20
2384.951523537469
 10
3432.715862084503
 20
2384.951523537469
 10
3432.715862084503
 20
88.95152353746926
  0
LWPOLYLINE
  5
2413
330
240E
100
AcDbEntity
  8
0
100
AcDbPolyline
 90
        4
 70
     1
 43
0.0
 10
112.7158620845034
 20
48.95152353746926
 10
112.7158620845034
 20
2424.951523537469
 10
3472.715862084504
 20
2424.951523537469
 10
3472.715862084504
 20
48.95152353746926
  0
LINE
  5
2414
330
240E
100
AcDbEntity
  8
0
100
AcDbLine
 10
1952.715862084503
 20
128.9515235374692
 30
0.0
 11
2472.715862084504
 21
128.9515235374692
 31
0.0
  0
LINE
  5
2415
330
240E
100
AcDbEntity
  8
0
100
AcDbLine
 10
1952.715862084503
 20
168.9515235374692
 30
0.0
 11
2472.715862084504
 21
168.9515235374692
 31
0.0
  0
LINE
  5
2416
330
240E
100
AcDbEntity
  8
0
100
AcDbLine
 10
1952.715862084503
 20
208.9515235374693
 30
0.0
 11
2472.715862084504
 21
208.9515235374693
 31
0.0
  0
LINE
  5
2417
330
240E
100
AcDbEntity
  8
0
100
AcDbLine
 10
1952.715862084503
 20
248.9515235374692
 30
0.0
 11
2472.715862084504
 21
248.9515235374692
 31
0.0
  0
LINE
  5
2418
330
240E
100
AcDbEntity
  8
0
100
AcDbLine
 10
1952.715862084503
 20
288.9515235374692
 30
0.0
 11
2472.715862084504
 21
288.9515235374692
 31
0.0
  0
LINE
  5
2419
330
240E
100
AcDbEntity
  8
0
100
AcDbLine
 10
1952.715862084503
 20
408.9515235374692
 30
0.0
 11
2472.715862084504
 21
408.9515235374692
 31
0.0
  0
LINE
  5
241A
330
240E
100
AcDbEntity
  8
0
100
AcDbLine
 10
1952.715862084503
 20
448.9515235374692
 30
0.0
 11
2472.715862084504
 21
448.9515235374692
 31
0.0
  0
LINE
  5
241B
330
240E
100
AcDbEntity
  8
0
100
AcDbLine
 10
1952.715862084503
 20
488.9515235374692
 30
0.0
 11
2472.715862084504
 21
488.9515235374692
 31
0.0
  0
TRACE
  5
241C
330
240E
100
AcDbEntity
  8
0
100
AcDbTrace
 10
2472.715862084504
 20
528.9515235374692
 30
0.0
 11
2472.715862084504
 21
528.9515235374692
 31
0.0
 12
2472.715862084504
 22
88.95152353746926
 32
0.0
 13
2472.715862084504
 23
88.95152353746926
 33
0.0
  0
TRACE
  5
241D
330
240E
100
AcDbEntity
  8
0
100
AcDbTrace
 10
2276.715862084504
 20
92.95152353746926
 30
0.0
 11
2268.715862084504
 21
84.95152353746926
 31
0.0
 12
2272.715862084504
 22
92.95152353746926
 32
0.0
 13
2272.715862084504
 23
84.95152353746926
 33
0.0
  0
TRACE
  5
241E
330
240E
100
AcDbEntity
  8
0
100
AcDbTrace
 10
2472.715862084504
 20
88.95152353746926
 30
0.0
 11
2472.715862084504
 21
88.95152353746926
 31
0.0
 12
2472.715862084504
 22
88.95152353746926
 32
0.0
 13
2472.715862084504
 23
88.95152353746926
 33
0.0
  0
LINE
  5
241F
330
240E
100
AcDbEntity
  8
0
100
AcDbLine
 10
2472.715862084504
 20
208.9515235374693
 30
0.0
 11
2472.715862084504
 21
168.9515235374692
 31
0.0
  0
TRACE
  5
2420
330
240E
100
AcDbEntity
  8
0
100
AcDbTrace
 10
2472.715862084504
 20
372.9515235374693
 30
0.0
 11
2472.715862084504
 21
364.9515235374693
 31
0.0
 12
2472.715862084504
 22
372.9515235374693
 32
0.0
 13
2472.715862084504
 23
364.9515235374693
 33
0.0
  0
LINE
  5
2421
330
240E
100
AcDbEntity
  8
0
100
AcDbLine
 10
3072.715862084504
 20
208.9515235374693
 30
0.0
 11
3112.715862084503
 21
208.9515235374693
 31
0.0
  0
LINE
  5
2422
330
240E
100
AcDbEntity
  8
0
100
AcDbLine
 10
3072.715862084504
 20
368.9515235374693
 30
0.0
 11
3072.715862084504
 21
248.9515235374692
 31
0.0
  0
LINE
  5
2423
330
240E
100
AcDbEntity
  8
0
100
AcDbLine
 10
3112.715862084503
 20
368.9515235374693
 30
0.0
 11
3112.715862084503
 21
248.9515235374692
 31
0.0
  0
LWPOLYLINE
  5
2424
330
240E
100
AcDbEntity
  8
0
100
AcDbPolyline
 90
        4
 70
     1
 43
4.0
 10
1952.715862084503
 20
88.95152353746926
 10
1952.715862084503
 20
528.9515235374692
 10
3432.715862084503
 20
528.9515235374692
 10
3432.715862084503
 20
88.95152353746926
  0
TRACE
  5
2425
330
240E
100
AcDbEntity
  8
0
100
AcDbTrace
 10
2472.715862084504
 20
410.9515235374692
 30
0.0
 11
2472.715862084504
 21
406.9515235374693
 31
0.0
 12
3434.715862084504
 22
410.9515235374692
 32
0.0
 13
3430.715862084504
 23
406.9515235374693
 33
0.0
  0
TRACE
  5
2426
330
240E
100
AcDbEntity
  8
0
100
AcDbTrace
 10
3434.715862084504
 20
410.9515235374692
 30
0.0
 11
3430.715862084504
 21
406.9515235374693
 31
0.0
 12
3434.715862084504
 22
328.9515235374693
 32
0.0
 13
3430.715862084504
 23
328.9515235374693
 33
0.0
  0
TRACE
  5
2427
330
240E
100
AcDbEntity
  8
0
100
AcDbTrace
 10
2472.715862084504
 20
210.9515235374693
 30
0.0
 11
2472.715862084504
 21
206.9515235374693
 31
0.0
 12
3432.715862084503
 22
210.9515235374693
 32
0.0
 13
3432.715862084503
 23
206.9515235374693
 33
0.0
  0
TRACE
  5
2428
330
240E
100
AcDbEntity
  8
0
100
AcDbTrace
 10
3432.715862084503
 20
210.9515235374693
 30
0.0
 11
3432.715862084503
 21
206.9515235374693
 31
0.0
 12
3432.715862084503
 22
210.9515235374693
 32
0.0
 13
3432.715862084503
 23
206.9515235374693
 33
0.0
  0
TRACE
  5
2429
330
240E
100
AcDbEntity
  8
0
100
AcDbTrace
 10
3030.715862084504
 20
208.9515235374693
 30
0.0
 11
3034.715862084504
 21
208.9515235374693
 31
0.0
 12
3030.715862084504
 22
408.9515235374692
 32
0.0
 13
3034.715862084504
 23
408.9515235374692
 33
0.0
  0
TRACE
  5
242A
330
240E
100
AcDbEntity
  8
0
100
AcDbTrace
 10
3034.715862084504
 20
408.9515235374692
 30
0.0
 11
3030.715862084504
 21
408.9515235374692
 31
0.0
 12
3034.715862084504
 22
288.9515235374692
 32
0.0
 13
3030.715862084504
 23
288.9515235374692
 33
0.0
  0
TRACE
  5
242B
330
240E
100
AcDbEntity
  8
0
100
AcDbTrace
 10
3154.715862084504
 20
408.9515235374692
 30
0.0
 11
3150.715862084504
 21
408.9515235374692
 31
0.0
 12
3154.715862084504
 22
248.9515235374692
 32
0.0
 13
3150.715862084504
 23
248.9515235374692
 33
0.0
  0
TRACE
  5
242C
330
240E
100
AcDbEntity
  8
0
100
AcDbTrace
 10
3154.715862084504
 20
210.9515235374693
 30
0.0
 11
3150.715862084504
 21
206.9515235374693
 31
0.0
 12
3152.715862084504
 22
210.9515235374693
 32
0.0
 13
3152.715862084504
 23
206.9515235374693
 33
0.0
  0
TRACE
  5
242D
330
240E
100
AcDbEntity
  8
0
100
AcDbTrace
 10
3032.715862084504
 20
370.9515235374693
 30
0.0
 11
3032.715862084504
 21
366.9515235374693
 31
0.0
 12
3432.715862084503
 22
370.9515235374693
 32
0.0
 13
3432.715862084503
 23
366.9515235374693
 33
0.0
  0
TRACE
  5
242E
330
240E
100
AcDbEntity
  8
0
100
AcDbTrace
 10
3432.715862084503
 20
370.9515235374693
 30
0.0
 11
3432.715862084503
 21
366.9515235374693
 31
0.0
 12
3432.715862084503
 22
370.9515235374693
 32
0.0
 13
3432.715862084503
 23
366.9515235374693
 33
0.0
  0
TRACE
  5
242F
330
240E
100
AcDbEntity
  8
0
100
AcDbTrace
 10
1952.715862084503
 20
370.9515235374693
 30
0.0
 11
1952.715862084503
 21
366.9515235374693
 31
0.0
 12
2472.715862084504
 22
370.9515235374693
 32
0.0
 13
2472.715862084504
 23
366.9515235374693
 33
0.0
  0
TRACE
  5
2430
330
240E
100
AcDbEntity
  8
0
100
AcDbTrace
 10
1952.715862084503
 20
330.9515235374693
 30
0.0
 11
1952.715862084503
 21
326.9515235374693
 31
0.0
 12
2470.715862084503
 22
330.9515235374693
 32
0.0
 13
2474.715862084504
 23
326.9515235374693
 33
0.0
  0
TRACE
  5
2431
330
240E
100
AcDbEntity
  8
0
100
AcDbTrace
 10
2470.715862084503
 20
330.9515235374693
 30
0.0
 11
2474.715862084504
 21
326.9515235374693
 31
0.0
 12
2470.715862084503
 22
368.9515235374693
 32
0.0
 13
2474.715862084504
 23
368.9515235374693
 33
0.0
  0
TRACE
  5
2432
330
240E
100
AcDbEntity
  8
0
100
AcDbTrace
 10
2012.715862084503
 20
530.9515235374692
 30
0.0
 11
2012.715862084503
 21
526.9515235374692
 31
0.0
 12
2012.715862084503
 22
530.9515235374692
 32
0.0
 13
2012.715862084503
 23
526.9515235374692
 33
0.0
  0
TRACE
  5
2433
330
240E
100
AcDbEntity
  8
0
100
AcDbTrace
 10
2012.715862084503
 20
530.9515235374692
 30
0.0
 11
2012.715862084503
 21
526.9515235374692
 31
0.0
 12
2032.715862084504
 22
530.9515235374692
 32
0.0
 13
2032.715862084504
 23
526.9515235374692
 33
0.0
  0
TRACE
  5
2434
330
240E
100
AcDbEntity
  8
0
100
AcDbTrace
 10
2032.715862084504
 20
530.9515235374692
 30
0.0
 11
2032.715862084504
 21
526.9515235374692
 31
0.0
 12
2094.715862084504
 22
530.9515235374692
 32
0.0
 13
2090.715862084504
 23
526.9515235374692
 33
0.0
  0
TRACE
  5
2435
330
240E
100
AcDbEntity
  8
0
100
AcDbTrace
 10
2094.715862084504
 20
530.9515235374692
 30
0.0
 11
2090.715862084504
 21
526.9515235374692
 31
0.0
 12
2094.715862084504
 22
90.95152353746925
 32
0.0
 13
2090.715862084504
 23
86.95152353746925
 33
0.0
  0
TRACE
  5
2436
330
240E
100
AcDbEntity
  8
0
100
AcDbTrace
 10
2094.715862084504
 20
90.95152353746925
 30
0.0
 11
2090.715862084504
 21
86.95152353746925
 31
0.0
 12
2092.715862084503
 22
90.95152353746925
 32
0.0
 13
2092.715862084503
 23
86.95152353746925
 33
0.0
  0
TRACE
  5
2437
330
240E
100
AcDbEntity
  8
0
100
AcDbTrace
 10
2274.715862084503
 20
528.9515235374692
 30
0.0
 11
2270.715862084504
 21
528.9515235374692
 31
0.0
 12
2274.715862084503
 22
90.95152353746925
 32
0.0
 13
2270.715862084504
 23
86.95152353746925
 33
0.0
  0
TRACE
  5
2438
330
240E
100
AcDbEntity
  8
0
100
AcDbTrace
 10
2274.715862084503
 20
90.95152353746925
 30
0.0
 11
2270.715862084504
 21
86.95152353746925
 31
0.0
 12
2272.715862084504
 22
90.95152353746925
 32
0.0
 13
2272.715862084504
 23
86.95152353746925
 33
0.0
  0
TRACE
  5
2439
330
240E
100
AcDbEntity
  8
0
100
AcDbTrace
 10
2274.715862084503
 20
528.9515235374692
 30
0.0
 11
2270.715862084504
 21
528.9515235374692
 31
0.0
 12
2274.715862084503
 22
90.95152353746925
 32
0.0
 13
2270.715862084504
 23
86.95152353746925
 33
0.0
  0
TRACE
  5
243A
330
240E
100
AcDbEntity
  8
0
100
AcDbTrace
 10
2274.715862084503
 20
90.95152353746925
 30
0.0
 11
2270.715862084504
 21
86.95152353746925
 31
0.0
 12
2272.715862084504
 22
90.95152353746925
 32
0.0
 13
2272.715862084504
 23
86.95152353746925
 33
0.0
  0
TRACE
  5
243B
330
240E
100
AcDbEntity
  8
0
100
AcDbTrace
 10
2474.715862084504
 20
528.9515235374692
 30
0.0
 11
2470.715862084503
 21
528.9515235374692
 31
0.0
 12
2474.715862084504
 22
90.95152353746925
 32
0.0
 13
2470.715862084503
 23
86.95152353746925
 33
0.0
  0
TRACE
  5
243C
330
240E
100
AcDbEntity
  8
0
100
AcDbTrace
 10
2474.715862084504
 20
90.95152353746925
 30
0.0
 11
2470.715862084503
 21
86.95152353746925
 31
0.0
 12
2472.715862084504
 22
90.95152353746925
 32
0.0
 13
2472.715862084504
 23
86.95152353746925
 33
0.0
  0
TRACE
  5
243D
330
240E
100
AcDbEntity
  8
0
100
AcDbTrace
 10
1952.715862084503
 20
370.9515235374693
 30
0.0
 11
1952.715862084503
 21
366.9515235374693
 31
0.0
 12
2472.715862084504
 22
370.9515235374693
 32
0.0
 13
2472.715862084504
 23
366.9515235374693
 33
0.0
  0
TRACE
  5
243E
330
240E
100
AcDbEntity
  8
0
100
AcDbTrace
 10
2472.715862084504
 20
370.9515235374693
 30
0.0
 11
2472.715862084504
 21
366.9515235374693
 31
0.0
 12
2472.715862084504
 22
370.9515235374693
 32
0.0
 13
2472.715862084504
 23
366.9515235374693
 33
0.0
  0
TRACE
  5
243F
330
240E
100
AcDbEntity
  8
0
100
AcDbTrace
 10
1992.715862084503
 20
328.9515235374693
 30
0.0
 11
1992.715862084503
 21
328.9515235374693
 31
0.0
 12
1952.715862084503
 22
328.9515235374693
 32
0.0
 13
1952.715862084503
 23
328.9515235374693
 33
0.0
  0
TRACE
  5
2440
330
240E
100
AcDbEntity
  8
0
100
AcDbTrace
 10
1952.715862084503
 20
328.9515235374693
 30
0.0
 11
1952.715862084503
 21
328.9515235374693
 31
0.0
 12
2472.715862084504
 22
328.9515235374693
 32
0.0
 13
2472.715862084504
 23
328.9515235374693
 33
0.0
  0
TRACE
  5
2441
330
240E
100
AcDbEntity
  8
0
100
AcDbTrace
 10
2472.715862084504
 20
328.9515235374693
 30
0.0
 11
2472.715862084504
 21
328.9515235374693
 31
0.0
 12
2472.715862084504
 22
328.9515235374693
 32
0.0
 13
2472.715862084504
 23
328.9515235374693
 33
0.0
  0
TRACE
  5
2442
330
240E
100
AcDbEntity
  8
0
100
AcDbTrace
 10
2472.715862084504
 20
328.9515235374693
 30
0.0
 11
2472.715862084504
 21
328.9515235374693
 31
0.0
 12
2472.715862084504
 22
328.9515235374693
 32
0.0
 13
2472.715862084504
 23
328.9515235374693
 33
0.0
  0
TRACE
  5
2443
330
240E
100
AcDbEntity
  8
0
100
AcDbTrace
 10
1952.715862084503
 20
330.9515235374693
 30
0.0
 11
1952.715862084503
 21
326.9515235374693
 31
0.0
 12
2472.715862084504
 22
330.9515235374693
 32
0.0
 13
2472.715862084504
 23
326.9515235374693
 33
0.0
  0
TRACE
  5
2444
330
240E
100
AcDbEntity
  8
0
100
AcDbTrace
 10
2472.715862084504
 20
330.9515235374693
 30
0.0
 11
2472.715862084504
 21
326.9515235374693
 31
0.0
 12
2472.715862084504
 22
330.9515235374693
 32
0.0
 13
2472.715862084504
 23
326.9515235374693
 33
0.0
  0
TRACE
  5
2445
330
240E
100
AcDbEntity
  8
0
100
AcDbTrace
 10
3290.715862084504
 20
408.9515235374692
 30
0.0
 11
3286.715862084503
 21
408.9515235374692
 31
0.0
 12
3290.715862084504
 22
248.9515235374692
 32
0.0
 13
3286.715862084503
 23
248.9515235374692
 33
0.0
  0
TRACE
  5
2446
330
240E
100
AcDbEntity
  8
0
100
AcDbTrace
 10
3290.715862084504
 20
210.9515235374693
 30
0.0
 11
3286.715862084503
 21
206.9515235374693
 31
0.0
 12
3296.715862084504
 22
210.9515235374693
 32
0.0
 13
3296.715862084504
 23
206.9515235374693
 33
0.0
  0
TRACE
  5
2447
330
240E
100
AcDbEntity
  8
0
100
AcDbTrace
 10
2006.715862084504
 20
328.9515235374693
 30
0.0
 11
2010.715862084504
 21
328.9515235374693
 31
0.0
 12
2006.715862084504
 22
530.9515235374692
 32
0.0
 13
2010.715862084504
 23
526.9515235374692
 33
0.0
  0
TRACE
  5
2448
330
240E
100
AcDbEntity
  8
0
100
AcDbTrace
 10
2006.715862084504
 20
530.9515235374692
 30
0.0
 11
2010.715862084504
 21
526.9515235374692
 31
0.0
 12
2016.715862084504
 22
530.9515235374692
 32
0.0
 13
2016.715862084504
 23
526.9515235374692
 33
0.0
  0
TRACE
  5
2449
330
240E
100
AcDbEntity
  8
0
100
AcDbTrace
 10
2384.715862084504
 20
530.9515235374692
 30
0.0
 11
2384.715862084504
 21
526.9515235374692
 31
0.0
 12
2394.715862084503
 22
530.9515235374692
 32
0.0
 13
2390.715862084503
 23
526.9515235374692
 33
0.0
  0
TRACE
  5
244A
330
240E
100
AcDbEntity
  8
0
100
AcDbTrace
 10
2394.715862084503
 20
530.9515235374692
 30
0.0
 11
2390.715862084503
 21
526.9515235374692
 31
0.0
 12
2394.715862084503
 22
86.95152353746925
 32
0.0
 13
2390.715862084503
 23
90.95152353746925
 33
0.0
  0
TRACE
  5
244B
330
240E
100
AcDbEntity
  8
0
100
AcDbTrace
 10
2394.715862084503
 20
86.95152353746925
 30
0.0
 11
2390.715862084503
 21
90.95152353746925
 31
0.0
 12
2376.715862084504
 22
86.95152353746925
 32
0.0
 13
2376.715862084504
 23
90.95152353746925
 33
0.0
  0
TRACE
  5
244C
330
240E
100
AcDbEntity
  8
0
100
AcDbTrace
 10
3290.715862084504
 20
400.9515235374692
 30
0.0
 11
3286.715862084503
 21
400.9515235374692
 31
0.0
 12
3290.715862084504
 22
248.9515235374692
 32
0.0
 13
3286.715862084503
 23
248.9515235374692
 33
0.0
  0
TRACE
  5
244D
330
240E
100
AcDbEntity
  8
0
100
AcDbTrace
 10
3290.715862084504
 20
210.9515235374693
 30
0.0
 11
3286.715862084503
 21
206.9515235374693
 31
0.0
 12
3288.715862084504
 22
210.9515235374693
 32
0.0
 13
3288.715862084504
 23
206.9515235374693
 33
0.0
  0
TRACE
  5
244E
330
240E
100
AcDbEntity
  8
0
100
AcDbTrace
 10
3034.715862084504
 20
312.9515235374693
 30
0.0
 11
3030.715862084504
 21
312.9515235374693
 31
0.0
 12
3034.715862084504
 22
90.95152353746925
 32
0.0
 13
3030.715862084504
 23
94.95152353746926
 33
0.0
  0
TRACE
  5
244F
330
240E
100
AcDbEntity
  8
0
100
AcDbTrace
 10
3034.715862084504
 20
100.9515235374692
 30
0.0
 11
3030.715862084504
 21
100.9515235374692
 31
0.0
 12
3034.715862084504
 22
90.95152353746925
 32
0.0
 13
3030.715862084504
 23
86.95152353746925
 33
0.0
  0
TRACE
  5
2450
330
240E
100
AcDbEntity
  8
0
100
AcDbTrace
 10
3034.715862084504
 20
90.95152353746925
 30
0.0
 11
3030.715862084504
 21
86.95152353746925
 31
0.0
 12
3032.715862084504
 22
90.95152353746925
 32
0.0
 13
3032.715862084504
 23
86.95152353746925
 33
0.0
  0
TRACE
  5
2451
330
240E
100
AcDbEntity
  8
0
100
AcDbTrace
 10
3032.715862084504
 20
250.9515235374693
 30
0.0
 11
3032.715862084504
 21
246.9515235374692
 31
0.0
 12
3432.715862084503
 22
250.9515235374693
 32
0.0
 13
3432.715862084503
 23
246.9515235374692
 33
0.0
  0
TRACE
  5
2452
330
240E
100
AcDbEntity
  8
0
100
AcDbTrace
 10
3432.715862084503
 20
250.9515235374693
 30
0.0
 11
3432.715862084503
 21
246.9515235374692
 31
0.0
 12
3432.715862084503
 22
250.9515235374693
 32
0.0
 13
3432.715862084503
 23
246.9515235374692
 33
0.0
  0
TRACE
  5
2453
330
240E
100
AcDbEntity
  8
0
100
AcDbTrace
 10
3194.715862084504
 20
248.9515235374692
 30
0.0
 11
3190.715862084504
 21
248.9515235374692
 31
0.0
 12
3194.715862084504
 22
210.9515235374693
 32
0.0
 13
3190.715862084504
 23
206.9515235374693
 33
0.0
  0
TRACE
  5
2454
330
240E
100
AcDbEntity
  8
0
100
AcDbTrace
 10
3194.715862084504
 20
210.9515235374693
 30
0.0
 11
3190.715862084504
 21
206.9515235374693
 31
0.0
 12
3192.715862084503
 22
210.9515235374693
 32
0.0
 13
3192.715862084503
 23
206.9515235374693
 33
0.0
  0
MTEXT
  5
2455
330
240E
100
AcDbEntity
  8
0
100
AcDbMText
 10
1960.715862084503
 20
320.9515235374693
 30
0.0
 40
20.0
 41
440.0
 71
     1
 72
     5
  1
{\fTimes New Roman|b0|i0|c186|p18;Parengė}
 73
     1
 44
1.0
  0
MTEXT
  5
2456
330
240E
100
AcDbEntity
  8
0
100
AcDbMText
 10
1960.715862084503
 20
280.9515235374693
 30
0.0
 40
20.0
 41
272.0
 71
     1
 72
     5
  1
{\fTimes New Roman|b0|i0|c186|p18;Tikrino}
 73
     1
 44
1.0
  0
MTEXT
  5
2457
330
240E
100
AcDbEntity
  8
0
100
AcDbMText
 10
1960.715862084503
 20
160.9515235374692
 30
0.0
 40
20.0
 41
200.0
 71
     1
 72
     5
  1

 73
     1
 44
1.0
  0
MTEXT
  5
2458
330
240E
100
AcDbEntity
  8
0
100
AcDbMText
 10
1960.715862084503
 20
120.9515235374692
 30
0.0
 40
20.0
 41
288.0
 71
     1
 72
     5
  1

 73
     1
 44
1.0
  0
MTEXT
  5
2459
330
240E
100
AcDbEntity
  8
0
100
AcDbMText
 10
1960.715862084503
 20
360.9515235374693
 30
0.0
 40
20.0
 41
120.0
 71
     1
 72
     5
  1
{\fTimes New Roman|b0|i0|c186|p18;Pak.}
 73
     1
 44
1.0
  0
MTEXT
  5
245A
330
240E
100
AcDbEntity
  8
0
100
AcDbMText
 10
2016.715862084504
 20
360.9515235374693
 30
0.0
 40
20.0
 41
272.0
 71
     1
 72
     5
  1
{\fTimes New Roman|b0|i0|c186|p18;Lapas}
 73
     1
 44
1.0
  0
MTEXT
  5
245B
330
240E
100
AcDbEntity
  8
0
100
AcDbMText
 10
2128.715862084503
 20
360.9515235374693
 30
0.0
 40
20.0
 41
240.0
 71
     1
 72
     5
  1
{\fTimes New Roman|b0|i0|c186|p18;Dok.Nr.}
 73
     1
 44
1.0
  0
MTEXT
  5
245C
330
240E
100
AcDbEntity
  8
0
100
AcDbMText
 10
2280.715862084504
 20
360.9515235374693
 30
0.0
 40
20.0
 41
184.0
 71
     1
 72
     5
  1
{\fTimes New Roman|b0|i0|c186|p18;Parašas}
 73
     1
 44
1.0
  0
MTEXT
  5
245D
330
240E
100
AcDbEntity
  8
0
100
AcDbMText
 10
2400.715862084504
 20
360.9515235374693
 30
0.0
 40
20.0
 41
152.0
 71
     1
 72
     5
  1
{\fTimes New Roman|b0|i0|c186|p18;Data}
 73
     1
 44
1.0
  0
MTEXT
  5
245E
330
240E
100
AcDbEntity
  8
0
100
AcDbMText
 10
3056.715862084504
 20
400.9515235374692
 30
0.0
 40
20.0
 41
184.0
 71
     1
 72
     5
  1
{\fTimes New Roman|b0|i0|c186|p18;Raidė}
 73
     1
 44
1.0
  0
MTEXT
  5
245F
330
240E
100
AcDbEntity
  8
0
100
AcDbMText
 10
3040.715862084504
 20
240.9515235374692
 30
0.0
 40
20.0
 41
216.0
 71
     1
 72
     5
  1
{\fTimes New Roman|b0|i0|c186|p18;Lapas}
 73
     1
 44
1.0
  0
MTEXT
  5
2460
330
240E
100
AcDbEntity
  8
0
100
AcDbMText
 10
3176.715862084503
 20
400.9515235374692
 30
0.0
 40
20.0
 41
200.0
 71
     1
 72
     5
  1
{\fTimes New Roman|b0|i0|c186|p18;Svoris}
 73
     1
 44
1.0
  0
MTEXT
  5
2461
330
240E
100
AcDbEntity
  8
0
100
AcDbMText
 10
3296.715862084504
 20
400.9515235374692
 30
0.0
 40
20.0
 41
192.0
 71
     1
 72
     5
  1
{\fTimes New Roman|b0|i0|c186|p18;Mąstelis}
 73
     1
 44
1.0
  0
MTEXT
  5
2462
330
240E
100
AcDbEntity
  8
0
100
AcDbMText
 10
2099.968325960726
 20
227.8742144294836
 30
0.0
 40
20.0
 41
177.76
 71
     4
 72
     5
  1

 73
     1
 44
1.0
  0
MTEXT
  5
2463
330
240E
100
AcDbEntity
  8
0
100
AcDbMText
 10
2102.368325960726
 20
317.1529057300677
 30
0.0
 40
20.0
 41
1008.0
 71
     1
 72
     5
  1
{\fTimes New Roman|b0|i0|c186|p18;E.Tuzinas}
 73
     1
 44
1.0
  0
MTEXT
  5
2464
330
240E
100
AcDbEntity
  8
ISKL
100
AcDbMText
 10
3113.515862084504
 20
142.5515235374692
 30
0.0
 40
20.0
 41
6.4
 71
     1
 72
     5
  1

 73
     1
 44
1.0
  0
MTEXT
  5
2465
330
240E
100
AcDbEntity
  8
0
100
AcDbMText
 10
3155.291248029387
 20
225.6622442277212
 30
0.0
 40
20.0
 41
64.66889999999999
 71
     5
 72
     5
  1
{\fTimes New Roman|b0|i0|c186|p18;1}
 73
     1
 44
1.0
  0
MTEXT
  5
2466
330
240E
100
AcDbEntity
  8
0
100
AcDbMText
 10
3359.715862084504
 20
230.9515235374693
 30
0.0
 40
22.5
 41
146.0
 71
     5
 72
     5
  1
{\fTimes New Roman|b0|i0|c186|p18;1}
 73
     1
 44
1.0
  0
MTEXT
  5
2467
330
240E
100
AcDbEntity
  8
0
100
AcDbMText
 10
3203.833482568076
 20
240.9515235374692
 30
0.0
 40
20.0
 41
216.0
 71
     1
 72
     5
  1
{\fTimes New Roman|b0|i0|c186|p18;Lapų}
 73
     1
 44
1.0
  0
MTEXT
  5
2468
330
240E
100
AcDbEntity
  8
0
100
AcDbMText
 10
2183.715862084504
 20
106.9515235374692
 30
0.0
 40
20.0
 41
178.0
 71
     5
 72
     5
  1

 73
     1
 44
1.0
  0
MTEXT
  5
246A
330
240E
100
AcDbEntity
  8
0
100
AcDbMText
 10
2750.715862084504
 20
313.9515235374692
 30
0.0
 40
40.0
 41
560.0
 71
     5
 72
     5
  1
{\fTimes New Roman|b0|i0|c186|p18;Rėmelis\P(}VKO{\fTimes New Roman|b0|i0|c186|p18; ventiliatoriams)}
 73
     1
 44
1.0
  0
MTEXT
  5
246B
330
240E
100
AcDbEntity
  8
0
100
AcDbMText
 10
2750.715862084504
 20
147.9515235374692
 30
0.0
 40
30.0
 41
560.0
 71
     5
 72
     5
  1
{\fTimes New Roman|b0|i0|c186|p18;Juosta DCV}
 73
     1
 44
1.0
  0
MTEXT
  5
246C
330
240E
100
AcDbEntity
  8
0
100
AcDbMText
 10
3363.150447258869
 20
155.4246432907524
 30
0.0
 40
30.0
 41
402.0
 71
     6
 72
     5
  1
{\fTimes New Roman|b0|i0|c186|p18;TŪB\fTimes New Roman|b0|i0|c0|p18;"SALDA"}
 73
     1
 44
1.0
  0
MTEXT
  5
246D
330
240E
100
AcDbEntity
  8
0
100
AcDbMText
 10
2102.368325960726
 20
279.1529057300677
 30
0.0
 40
20.0
 41
1008.0
 71
     1
 72
     5
  1
{\fTimes New Roman|b0|i0|c186|p18;G.Taujenis}
 73
     1
 44
1.0
  0
ENDBLK
  5
246E
330
240E
100
AcDbEntity
  8
0
100
AcDbBlockEnd
  0
BLOCK
  5
10F9
330
10F8
100
AcDbEntity
  8
0
100
AcDbBlockBegin
  2
*Paper_Space17
 70
     0
 10
0.0
 20
0.0
 30
0.0
  3
*Paper_Space17
  1

  0
VIEWPORT
  5
1B27
330
10F8
100
AcDbEntity
  8
0
100
AcDbViewport
 10
5.614583173136073
 20
4.901170402497012
 30
0.0
 40
16.51055737519482
 41
10.74430743762678
 69
     0
 12
5.614583173136073
 22
4.901170402497012
 13
0.0
 23
0.0
 14
10.0
 24
10.0
 15
10.0
 25
10.0
 16
0.0
 26
0.0
 36
1.0
 17
0.0
 27
0.0
 37
0.0
 42
50.0
 43
0.0
 44
0.0
 45
10.74430743762678
 50
0.0
 51
0.0
 72
  1000
 90
    32800
  1

281
     0
 71
     1
 74
     0
110
0.0
120
0.0
130
0.0
111
1.0
121
0.0
131
0.0
112
0.0
122
1.0
132
0.0
 79
     0
146
0.0
170
     0
  0
VIEWPORT
  5
1B29
330
10F8
100
AcDbEntity
  8
PAGR
100
AcDbViewport
 10
5.61874992265476
 20
3.860416543765331
 30
0.0
 40
8.989999876247615
 41
6.17666647002453
 69
     0
 12
1702.713331388357
 22
243.4055964562741
 13
0.0
 23
0.0
 14
0.5
 24
0.5
 15
0.5
 25
0.5
 16
0.0
 26
0.0
 36
1.0
 17
0.0
 27
0.0
 37
0.0
 42
50.0
 43
0.0
 44
0.0
 45
2327.853437354555
 50
0.0
 51
0.0
 72
  1000
 90
    32864
  1

281
     0
 71
     1
 74
     0
110
0.0
120
0.0
130
0.0
111
1.0
121
0.0
131
0.0
112
0.0
122
1.0
132
0.0
 79
     0
146
0.0
170
     0
  0
ENDBLK
  5
10FA
330
10F8
100
AcDbEntity
  8
0
100
AcDbBlockEnd
  0
BLOCK
  5
29A8
330
299E
100
AcDbEntity
  8
0
100
AcDbBlockBegin
  2
*D24
 70
     1
 10
0.0
 20
0.0
 30
0.0
  3
*D24
  1

  0
LINE
  5
2D2D
330
299E
100
AcDbEntity
  8
PAGR
 62
     0
370
    -2
100
AcDbLine
 10
348.2290294297982
 20
77.26446070172824
 30
0.0
 11
348.2290294297982
 21
69.69413608239211
 31
0.0
  0
LINE
  5
2D2E
330
299E
100
AcDbEntity
  8
PAGR
 62
     0
370
    -2
100
AcDbLine
 10
372.6789841807422
 20
73.19869426199557
 30
0.0
 11
372.6789841807422
 21
81.6941360823921
 31
0.0
  0
LINE
  5
2D2F
330
299E
100
AcDbEntity
  8
PAGR
 62
     0
370
    -2
100
AcDbLine
 10
354.2290294297982
 20
75.6941360823921
 30
0.0
 11
366.6789841807422
 21
75.6941360823921
 31
0.0
  0
MTEXT
  5
2D30
330
299E
100
AcDbEntity
  8
PAGR
 62
     0
100
AcDbMText
 10
361.5789600191638
 20
92.29371774900938
 30
0.0
 40
12.0
 41
0.0
 71
     5
 72
     1
  1
\A1;60
 73
     1
 44
1.0
  0
SOLID
  5
2D31
330
299E
100
AcDbEntity
  8
PAGR
 62
     0
100
AcDbTrace
 10
354.2290294297982
 20
76.6941360823921
 30
0.0
 11
354.2290294297982
 21
74.69413608239211
 31
0.0
 12
348.2290294297982
 22
75.6941360823921
 32
0.0
 13
348.2290294297982
 23
75.6941360823921
 33
0.0
  0
SOLID
  5
2D32
330
299E
100
AcDbEntity
  8
PAGR
 62
     0
100
AcDbTrace
 10
366.6789841807422
 20
76.6941360823921
 30
0.0
 11
366.6789841807422
 21
74.69413608239211
 31
0.0
 12
372.6789841807422
 22
75.6941360823921
 32
0.0
 13
372.6789841807422
 23
75.6941360823921
 33
0.0
  0
POINT
  5
2D33
330
299E
100
AcDbEntity
  8
DEFPOINTS
 62
     0
100
AcDbPoint
 10
348.2290294297982
 20
77.26446070172824
 30
0.0
  0
POINT
  5
2D34
330
299E
100
AcDbEntity
  8
DEFPOINTS
 62
     0
100
AcDbPoint
 10
372.6789841807422
 20
73.19869426199557
 30
0.0
  0
POINT
  5
2D35
330
299E
100
AcDbEntity
  8
DEFPOINTS
 62
     0
100
AcDbPoint
 10
372.6789841807422
 20
75.6941360823921
 30
0.0
  0
ENDBLK
  5
29A9
330
299E
100
AcDbEntity
  8
0
100
AcDbBlockEnd
  0
ENDSEC
  0
SECTION
  2
ENTITIES
  0
LINE
  5
1BE
330
10FC
100
AcDbEntity
  8
PAGR
100
AcDbLine
 10
372.678984180742
 20
46.87704500607309
 30
0.0
 11
72.67898418074202
 21
46.87704500607304
 31
0.0
  0
DIMENSION
  5
1C0
330
10FC
100
AcDbEntity
  8
MATM
100
AcDbDimension
  2
*D6
 10
72.67898418074202
 20
216.6245052343707
 30
0.0
 11
222.678984180742
 21
225.6245052343706
 31
0.0
 70
    32
  1
H
 71
     5
 42
300.0
  3
ISO-25
100
AcDbAlignedDimension
 13
372.678984180742
 23
232.264040036921
 33
0.0
 14
72.67898418074202
 24
232.264040036921
 34
0.0
100
AcDbRotatedDimension
  0
LINE
  5
1C2
102
{ACAD_REACTORS
330
ED0
102
}
330
10FC
100
AcDbEntity
  8
PAGR
100
AcDbLine
 10
372.678984180742
 20
139.3770450060731
 30
0.0
 11
72.67898418074202
 21
139.3770450060731
 31
0.0
  0
LINE
  5
1C3
102
{ACAD_REACTORS
330
ED0
102
}
330
10FC
100
AcDbEntity
  8
PAGR
100
AcDbLine
 10
182.3706169966659
 20
64.3770450060731
 30
0.0
 11
72.67898418074202
 21
64.3770450060731
 31
0.0
  0
LINE
  5
1C4
330
10FC
100
AcDbEntity
  8
PAGR
100
AcDbLine
 10
72.67898418074202
 20
36.87704500607304
 30
0.0
 11
372.678984180742
 21
36.87704500607304
 31
0.0
  0
LINE
  5
1C5
330
10FC
100
AcDbEntity
  8
PAGR
100
AcDbLine
 10
372.678984180742
 20
156.8770450060731
 30
0.0
 11
72.67898418074202
 21
156.8770450060731
 31
0.0
  0
LINE
  5
1C6
330
10FC
100
AcDbEntity
  8
PAGR
100
AcDbLine
 10
72.67898418074202
 20
166.8770450060731
 30
0.0
 11
372.678984180742
 21
166.8770450060731
 31
0.0
  0
DIMENSION
  5
1C7
330
10FC
100
AcDbEntity
  8
MATM
100
AcDbDimension
  2
*D2
 10
54.67898418074202
 20
205.5125868304749
 30
0.0
 11
222.6789841807422
 21
205.5125868304749
 31
0.0
 70
   160
  1
H+40
 71
     5
 42
336.0
  3
ISO-25
100
AcDbAlignedDimension
 13
390.678984180742
 23
250.264040036921
 33
0.0
 14
54.67898418074202
 24
250.264040036921
 34
0.0
100
AcDbRotatedDimension
  0
LINE
  5
1C9
330
10FC
100
AcDbEntity
  8
PAGR
100
AcDbLine
 10
372.678984180742
 20
232.264040036921
 30
0.0
 11
72.67898418074202
 21
232.264040036921
 31
0.0
  0
LINE
  5
1CA
330
10FC
100
AcDbEntity
  8
PAGR
100
AcDbLine
 10
72.67898418074202
 20
418.2640400369208
 30
0.0
 11
372.678984180742
 21
418.2640400369208
 31
0.0
  0
LINE
  5
1CB
330
10FC
100
AcDbEntity
  8
PAGR
100
AcDbLine
 10
372.678984180742
 20
250.264040036921
 30
0.0
 11
72.67898418074202
 21
250.264040036921
 31
0.0
  0
LINE
  5
1CC
330
10FC
100
AcDbEntity
  8
PAGR
100
AcDbLine
 10
72.67898418074202
 20
400.2640400369207
 30
0.0
 11
372.678984180742
 21
400.2640400369207
 31
0.0
  0
DIMENSION
  5
1D0
330
10FC
100
AcDbEntity
  8
MATM
100
AcDbDimension
  2
*D5
 10
42.11341191374216
 20
166.8770450060731
 30
0.0
 11
42.11341191374215
 21
101.877045006073
 31
0.0
 70
   160
  1
{\fTimes New Roman|b0|i0|c186|p18;95\H0.5556x;±0.5\fTimes New Roman|b0|i0|c0|p18;\H0.6x;}
 71
     5
 42
130.0
  3
ISO-25
100
AcDbAlignedDimension
 13
54.67898418074202
 23
36.8770450060731
 33
0.0
 14
54.67898418074202
 24
166.8770450060731
 34
0.0
 50
270.0
100
AcDbRotatedDimension
  0
LINE
  5
1D1
102
{ACAD_REACTORS
330
ED0
102
}
330
10FC
100
AcDbEntity
  8
PAGR
100
AcDbLine
 10
72.67898418074202
 20
36.87704500607304
 30
0.0
 11
72.67898418074202
 21
166.8770450060731
 31
0.0
  0
LINE
  5
1D4
330
10FC
100
AcDbEntity
  8
PAGR
100
AcDbLine
 10
72.67898418074202
 20
36.87704500607304
 30
0.0
 11
54.67898418074202
 21
36.87704500607316
 31
0.0
  0
LINE
  5
1D5
330
10FC
100
AcDbEntity
  8
PAGR
100
AcDbLine
 10
56.67898418074194
 20
38.87704500607315
 30
0.0
 11
72.67898418074202
 21
38.87704500607304
 31
0.0
  0
LINE
  5
1D6
330
10FC
100
AcDbEntity
  8
PAGR
100
AcDbLine
 10
72.67898418074202
 20
40.87704500607304
 30
0.0
 11
56.67898418074202
 21
40.87704500607315
 31
0.0
  0
LINE
  5
1D7
330
10FC
100
AcDbEntity
  8
PAGR
100
AcDbLine
 10
54.67898418074202
 20
46.87704500607309
 30
0.0
 11
54.67898418074202
 21
36.8770450060731
 31
0.0
  0
LINE
  5
1D8
330
10FC
100
AcDbEntity
  8
PAGR
100
AcDbLine
 10
54.67898418074202
 20
36.87704500607316
 30
0.0
 11
54.67898418074208
 21
46.87704500607315
 31
0.0
  0
LINE
  5
1D9
330
10FC
100
AcDbEntity
  8
PAGR
100
AcDbLine
 10
56.67898418074202
 20
36.8770450060731
 30
0.0
 11
56.67898418074202
 21
45.87704500607309
 31
0.0
  0
LINE
  5
1DA
330
10FC
100
AcDbEntity
  8
PAGR
100
AcDbLine
 10
56.67898418074209
 20
46.87704500607315
 30
0.0
 11
56.67898418074202
 21
37.87704500607315
 31
0.0
  0
LINE
  5
1DB
330
10FC
100
AcDbEntity
  8
PAGR
100
AcDbLine
 10
54.67898418074202
 20
36.8770450060731
 30
0.0
 11
55.67898418074203
 21
36.8770450060731
 31
0.0
  0
LINE
  5
1DC
330
10FC
100
AcDbEntity
  8
PAGR
100
AcDbLine
 10
54.67898418074202
 20
36.87704500607304
 30
0.0
 11
55.67898418074203
 21
36.87704500607304
 31
0.0
  0
LINE
  5
1DD
330
10FC
100
AcDbEntity
  8
PAGR
100
AcDbLine
 10
57.49774113617497
 20
40.87704500607315
 30
0.0
 11
57.49774113617497
 21
38.87704500607315
 31
0.0
  0
LINE
  5
1DE
330
10FC
100
AcDbEntity
  8
PAGR
100
AcDbLine
 10
54.67898418074202
 20
46.87704500607309
 30
0.0
 11
56.67898418074209
 21
46.87704500607315
 31
0.0
  0
LINE
  5
1F6
330
10FC
100
AcDbEntity
  8
PAGR
100
AcDbLine
 10
72.67898418074202
 20
166.8770450060731
 30
0.0
 11
54.67898418074202
 21
166.877045006073
 31
0.0
  0
LINE
  5
1F7
330
10FC
100
AcDbEntity
  8
PAGR
100
AcDbLine
 10
56.67898418074194
 20
164.877045006073
 30
0.0
 11
72.67898418074202
 21
164.8770450060731
 31
0.0
  0
LINE
  5
1F8
330
10FC
100
AcDbEntity
  8
PAGR
100
AcDbLine
 10
72.67898418074202
 20
162.8770450060731
 30
0.0
 11
56.67898418074202
 21
162.877045006073
 31
0.0
  0
LINE
  5
1FA
330
10FC
100
AcDbEntity
  8
PAGR
100
AcDbLine
 10
54.67898418074202
 20
166.8770450060731
 30
0.0
 11
55.67898418074203
 21
166.8770450060731
 31
0.0
  0
LINE
  5
1FB
330
10FC
100
AcDbEntity
  8
PAGR
100
AcDbLine
 10
57.49774113617497
 20
162.877045006073
 30
0.0
 11
57.49774113617497
 21
164.877045006073
 31
0.0
  0
LINE
  5
1FC
330
10FC
100
AcDbEntity
  8
PAGR
100
AcDbLine
 10
56.67898418074202
 20
166.8770450060731
 30
0.0
 11
56.67898418074209
 21
156.877045006073
 31
0.0
  0
LINE
  5
1FD
330
10FC
100
AcDbEntity
  8
PAGR
100
AcDbLine
 10
54.67898418074202
 20
166.8770450060731
 30
0.0
 11
55.67898418074203
 21
166.8770450060731
 31
0.0
  0
LINE
  5
1FE
330
10FC
100
AcDbEntity
  8
PAGR
100
AcDbLine
 10
54.67898418074202
 20
156.8770450060731
 30
0.0
 11
54.67898418074202
 21
166.8770450060731
 31
0.0
  0
LINE
  5
209
330
10FC
100
AcDbEntity
  8
PAGR
100
AcDbLine
 10
72.67898418074202
 20
166.8770450060731
 30
0.0
 11
72.67898418074202
 21
156.8770450060731
 31
0.0
  0
LINE
  5
20A
330
10FC
100
AcDbEntity
  8
PAGR
100
AcDbLine
 10
54.67898418074202
 20
250.264040036921
 30
0.0
 11
54.67898418074202
 21
400.2640400369207
 31
0.0
  0
LINE
  5
20B
330
10FC
100
AcDbEntity
  8
PAGR
100
AcDbLine
 10
72.67898418074202
 20
250.264040036921
 30
0.0
 11
72.67898418074202
 21
400.2640400369207
 31
0.0
  0
LINE
  5
20C
330
10FC
100
AcDbEntity
  8
PAGR
100
AcDbLine
 10
58.67898418074214
 20
233.264040036921
 30
0.0
 11
72.67898418074202
 21
233.264040036921
 31
0.0
  0
LINE
  5
20D
330
10FC
100
AcDbEntity
  8
PAGR
100
AcDbLine
 10
72.67898418074202
 20
250.264040036921
 30
0.0
 11
54.67898418074202
 21
250.264040036921
 31
0.0
  0
LINE
  5
20F
330
10FC
100
AcDbEntity
  8
PAGR
100
AcDbLine
 10
55.67898418074203
 20
250.264040036921
 30
0.0
 11
55.67898418074203
 21
238.5512185247562
 31
0.0
  0
LINE
  5
210
330
10FC
100
AcDbEntity
  8
PAGR
100
AcDbLine
 10
55.67898418074214
 20
236.2640400369209
 30
0.0
 11
55.67898418074203
 21
243.2640400369209
 31
0.0
  0
LINE
  5
211
330
10FC
100
AcDbEntity
  8
PAGR
100
AcDbLine
 10
72.67898418074202
 20
232.264040036921
 30
0.0
 11
72.67898418074202
 21
250.264040036921
 31
0.0
  0
LINE
  5
212
330
10FC
100
AcDbEntity
  8
PAGR
100
AcDbLine
 10
58.67898418074219
 20
417.2640400369209
 30
0.0
 11
72.67898418074202
 21
417.2640400369208
 31
0.0
  0
LINE
  5
213
330
10FC
100
AcDbEntity
  8
PAGR
100
AcDbLine
 10
54.67898418074202
 20
400.2640400369207
 30
0.0
 11
72.67898418074202
 21
400.2640400369207
 31
0.0
  0
LINE
  5
214
330
10FC
100
AcDbEntity
  8
PAGR
100
AcDbLine
 10
55.67898418074203
 20
411.9768615490857
 30
0.0
 11
55.67898418074203
 21
407.2640400369207
 31
0.0
  0
LINE
  5
216
330
10FC
100
AcDbEntity
  8
PAGR
100
AcDbLine
 10
55.67898418074203
 20
400.2640400369207
 30
0.0
 11
55.67898418074216
 21
414.2640400369209
 31
0.0
  0
LINE
  5
217
330
10FC
100
AcDbEntity
  8
PAGR
100
AcDbLine
 10
55.67898418074203
 20
409.2640400369208
 30
0.0
 11
55.67898418074203
 21
400.2640400369207
 31
0.0
  0
LINE
  5
218
330
10FC
100
AcDbEntity
  8
PAGR
100
AcDbLine
 10
72.67898418074202
 20
400.2640400369207
 30
0.0
 11
72.67898418074202
 21
418.2640400369208
 31
0.0
  0
LINE
  5
224
102
{ACAD_REACTORS
330
ED0
102
}
330
10FC
100
AcDbEntity
  8
PAGR
100
AcDbLine
 10
372.678984180742
 20
166.8770450060731
 30
0.0
 11
372.678984180742
 21
46.87704500607315
 31
0.0
  0
LINE
  5
225
102
{ACAD_REACTORS
330
ED0
102
}
330
10FC
100
AcDbEntity
  8
PAGR
100
AcDbLine
 10
182.3706169966659
 20
64.3770450060731
 30
0.0
 11
372.678984180742
 21
64.3770450060731
 31
0.0
  0
LINE
  5
226
330
10FC
100
AcDbEntity
  8
PAGR
100
AcDbLine
 10
388.678984180742
 20
46.87704500607315
 30
0.0
 11
388.678984180742
 21
37.87704500607315
 31
0.0
  0
LINE
  5
227
330
10FC
100
AcDbEntity
  8
PAGR
100
AcDbLine
 10
388.678984180742
 20
36.8770450060731
 30
0.0
 11
388.678984180742
 21
45.87704500607309
 31
0.0
  0
LINE
  5
228
330
10FC
100
AcDbEntity
  8
PAGR
100
AcDbLine
 10
390.678984180742
 20
36.87704500607316
 30
0.0
 11
390.678984180742
 21
46.87704500607315
 31
0.0
  0
LINE
  5
229
330
10FC
100
AcDbEntity
  8
PAGR
100
AcDbLine
 10
390.678984180742
 20
46.87704500607309
 30
0.0
 11
390.678984180742
 21
36.8770450060731
 31
0.0
  0
LINE
  5
22A
330
10FC
100
AcDbEntity
  8
PAGR
100
AcDbLine
 10
372.678984180742
 20
36.87704500607304
 30
0.0
 11
372.678984180742
 21
46.87704500607315
 31
0.0
  0
LINE
  5
22B
330
10FC
100
AcDbEntity
  8
PAGR
100
AcDbLine
 10
387.8602272253091
 20
40.87704500607315
 30
0.0
 11
387.8602272253091
 21
38.87704500607315
 31
0.0
  0
LINE
  5
22E
330
10FC
100
AcDbEntity
  8
PAGR
100
AcDbLine
 10
372.678984180742
 20
40.87704500607304
 30
0.0
 11
388.678984180742
 21
40.87704500607315
 31
0.0
  0
LINE
  5
22F
330
10FC
100
AcDbEntity
  8
PAGR
100
AcDbLine
 10
388.678984180742
 20
38.87704500607315
 30
0.0
 11
372.678984180742
 21
38.87704500607304
 31
0.0
  0
LINE
  5
230
330
10FC
100
AcDbEntity
  8
PAGR
100
AcDbLine
 10
372.678984180742
 20
36.87704500607304
 30
0.0
 11
390.678984180742
 21
36.87704500607316
 31
0.0
  0
LINE
  5
231
330
10FC
100
AcDbEntity
  8
PAGR
100
AcDbLine
 10
390.678984180742
 20
46.87704500607309
 30
0.0
 11
388.678984180742
 21
46.87704500607315
 31
0.0
  0
LINE
  5
237
330
10FC
100
AcDbEntity
  8
PAGR
100
AcDbLine
 10
390.678984180742
 20
156.8770450060731
 30
0.0
 11
390.678984180742
 21
166.8770450060731
 31
0.0
  0
LINE
  5
238
330
10FC
100
AcDbEntity
  8
PAGR
100
AcDbLine
 10
390.678984180742
 20
166.8770450060731
 30
0.0
 11
389.678984180742
 21
166.8770450060731
 31
0.0
  0
LINE
  5
239
330
10FC
100
AcDbEntity
  8
PAGR
100
AcDbLine
 10
390.678984180742
 20
166.8770450060731
 30
0.0
 11
389.678984180742
 21
166.8770450060731
 31
0.0
  0
LINE
  5
23A
330
10FC
100
AcDbEntity
  8
PAGR
100
AcDbLine
 10
390.678984180742
 20
166.877045006073
 30
0.0
 11
390.678984180742
 21
156.877045006073
 31
0.0
  0
LINE
  5
23B
330
10FC
100
AcDbEntity
  8
PAGR
100
AcDbLine
 10
388.678984180742
 20
166.8770450060731
 30
0.0
 11
388.678984180742
 21
156.877045006073
 31
0.0
  0
LINE
  5
23C
330
10FC
100
AcDbEntity
  8
PAGR
100
AcDbLine
 10
387.8602272253091
 20
162.877045006073
 30
0.0
 11
387.8602272253091
 21
164.877045006073
 31
0.0
  0
LINE
  5
23E
330
10FC
100
AcDbEntity
  8
PAGR
100
AcDbLine
 10
372.678984180742
 20
166.8770450060731
 30
0.0
 11
390.678984180742
 21
166.877045006073
 31
0.0
  0
LINE
  5
23F
330
10FC
100
AcDbEntity
  8
PAGR
100
AcDbLine
 10
388.678984180742
 20
164.877045006073
 30
0.0
 11
372.678984180742
 21
164.8770450060731
 31
0.0
  0
LINE
  5
240
330
10FC
100
AcDbEntity
  8
PAGR
100
AcDbLine
 10
372.678984180742
 20
162.8770450060731
 30
0.0
 11
388.678984180742
 21
162.877045006073
 31
0.0
  0
DIMENSION
  5
247
330
10FC
100
AcDbEntity
  8
MATM
100
AcDbDimension
  2
*D4
 10
409.1451923336644
 20
250.264040036921
 30
0.0
 11
409.1451923336645
 21
325.2640400369211
 31
0.0
 70
   160
  1
{\fTimes New Roman|b0|i0|c0|p18;H}
 71
     5
 42
149.9999999999998
  3
ISO-25
100
AcDbAlignedDimension
 13
390.678984180742
 23
400.2640400369207
 33
0.0
 14
390.678984180742
 24
250.264040036921
 34
0.0
 50
90.0
100
AcDbRotatedDimension
  0
DIMENSION
  5
248
330
10FC
100
AcDbEntity
  8
MATM
100
AcDbDimension
  2
*D3
 10
432.0169392097122
 20
232.264040036921
 30
0.0
 11
422.9131180128844
 21
325.264040036921
 31
0.0
 70
    32
  1
{\fTimes New Roman|b0|i0|c0|p18;H\fTimes New Roman|b0|i0|c186|p18;+40}
 71
     5
 42
185.9999999999998
  3
ISO-25
100
AcDbAlignedDimension
 13
372.678984180742
 23
418.2640400369208
 33
0.0
 14
372.678984180742
 24
232.264040036921
 34
0.0
 50
90.0
100
AcDbRotatedDimension
  0
LINE
  5
24A
330
10FC
100
AcDbEntity
  8
PAGR
100
AcDbLine
 10
390.678984180742
 20
400.2640400369207
 30
0.0
 11
390.678984180742
 21
250.264040036921
 31
0.0
  0
LINE
  5
24B
330
10FC
100
AcDbEntity
  8
PAGR
100
AcDbLine
 10
372.678984180742
 20
400.2640400369207
 30
0.0
 11
372.678984180742
 21
250.264040036921
 31
0.0
  0
LINE
  5
24C
330
10FC
100
AcDbEntity
  8
PAGR
100
AcDbLine
 10
372.678984180742
 20
250.264040036921
 30
0.0
 11
372.678984180742
 21
232.264040036921
 31
0.0
  0
LINE
  5
24D
330
10FC
100
AcDbEntity
  8
PAGR
100
AcDbLine
 10
389.678984180742
 20
250.264040036921
 30
0.0
 11
389.6789841807422
 21
236.264040036921
 31
0.0
  0
LINE
  5
24F
330
10FC
100
AcDbEntity
  8
PAGR
100
AcDbLine
 10
386.6789841807422
 20
233.264040036921
 30
0.0
 11
372.678984180742
 21
233.264040036921
 31
0.0
  0
LINE
  5
250
330
10FC
100
AcDbEntity
  8
PAGR
100
AcDbLine
 10
390.678984180742
 20
250.264040036921
 30
0.0
 11
372.678984180742
 21
250.264040036921
 31
0.0
  0
LINE
  5
252
330
10FC
100
AcDbEntity
  8
PAGR
100
AcDbLine
 10
386.6789841807421
 20
417.2640400369209
 30
0.0
 11
372.678984180742
 21
417.2640400369208
 31
0.0
  0
LINE
  5
253
330
10FC
100
AcDbEntity
  8
PAGR
100
AcDbLine
 10
389.678984180742
 20
400.2640400369207
 30
0.0
 11
389.6789841807422
 21
414.2640400369208
 31
0.0
  0
LINE
  5
254
330
10FC
100
AcDbEntity
  8
PAGR
100
AcDbLine
 10
372.678984180742
 20
400.2640400369207
 30
0.0
 11
390.678984180742
 21
400.2640400369207
 31
0.0
  0
LINE
  5
255
330
10FC
100
AcDbEntity
  8
PAGR
100
AcDbLine
 10
372.678984180742
 20
418.2640400369208
 30
0.0
 11
372.678984180742
 21
400.2640400369207
 31
0.0
  0
LINE
  5
3DC
330
10FC
100
AcDbEntity
  8
PAGR
100
AcDbLine
 10
54.67898418074202
 20
156.8770450060731
 30
0.0
 11
56.67898418074207
 21
156.8770450060731
 31
0.0
  0
LINE
  5
3DD
330
10FC
100
AcDbEntity
  8
PAGR
100
AcDbLine
 10
388.678984180742
 20
156.877045006073
 30
0.0
 11
390.678984180742
 21
156.9297855436489
 31
0.0
  0
LINE
  5
3DE
330
10FC
100
AcDbEntity
  8
ASYS
100
AcDbLine
 10
222.678984180742
 20
424.4025611581887
 30
0.0
 11
222.678984180742
 21
229.9691088658474
 31
0.0
  0
LINE
  5
3DF
102
{ACAD_REACTORS
330
ED0
102
}
330
10FC
100
AcDbEntity
  8
ASYS
100
AcDbLine
 10
222.678984180742
 20
174.7320801439698
 30
0.0
 11
222.678984180742
 21
31.09705200690627
 31
0.0
  0
LINE
  5
EAB
330
10FC
100
AcDbEntity
  8
ASYS
100
AcDbLine
 10
46.44575868866605
 20
325.2640400369209
 30
0.0
 11
398.907012807349
 21
325.2640400369209
 31
0.0
  0
HATCH
  5
ED0
330
10FC
100
AcDbEntity
  8
ASYS
  6
Continuous
100
AcDbHatch
 10
0.0
 20
0.0
 30
0.0
210
0.0
220
0.0
230
1.0
  2
ANSI34
 70
     0
 71
     1
 91
        2
 92
        7
 72
     0
 73
     1
 93
        4
 10
372.678984180742
 20
139.3770450060731
 10
222.678984180742
 20
139.3770450060731
 10
222.678984180742
 20
64.3770450060731
 10
372.678984180742
 20
64.3770450060731
 97
        4
330
1C2
330
3DF
330
225
330
224
 92
        7
 72
     0
 73
     1
 93
        5
 10
222.678984180742
 20
139.3770450060731
 10
72.67898418074203
 20
139.3770450060731
 10
72.67898418074202
 20
64.3770450060731
 10
182.3706169966659
 20
64.3770450060731
 10
222.678984180742
 20
64.3770450060731
 97
        5
330
1C2
330
1D1
330
1C3
330
225
330
3DF
 75
     0
 76
     1
 52
0.0
 41
20.0
 77
     0
 78
     4
 53
45.0
 43
0.0
 44
0.0
 45
-10.60660171779821
 46
10.60660171779821
 79
     0
 53
45.0
 43
3.535533899999999
 44
0.0
 45
-10.60660171779821
 46
10.60660171779821
 79
     0
 53
45.0
 43
7.071067819999997
 44
0.0
 45
-10.60660171779821
 46
10.60660171779821
 79
     0
 53
45.0
 43
10.60660172
 44
0.0
 45
-10.60660171779821
 46
10.60660171779821
 79
     0
 47
0.4720848385344237
 98
        2
 10
287.6243417896221
 20
107.3934603916843
 10
172.3321834357151
 20
99.3680177143417
  0
LINE
  5
12F6
330
10FC
100
AcDbEntity
  8
Nemat
100
AcDbLine
 10
348.2290294297977
 20
156.877045006073
 30
0.0
 11
348.2290294297978
 21
46.87704500607309
 31
0.0
  0
LINE
  5
1E43
330
10FC
100
AcDbEntity
  8
Nemat
100
AcDbLine
 10
348.2290294297977
 20
156.877045006073
 30
0.0
 11
348.2290294297977
 21
166.8770450060731
 31
0.0
  0
LINE
  5
1E44
330
10FC
100
AcDbEntity
  8
Nemat
100
AcDbLine
 10
348.2290294297978
 20
46.87704500607309
 30
0.0
 11
348.2290294297978
 21
36.87704500607304
 31
0.0
  0
LEADER
  5
1EF6
330
10FC
100
AcDbEntity
  8
MATM
100
AcDbLeader
  3
ISO-25
 73
     0
 40
12.2422494592646
 41
68.43547224224945
 76
     3
 10
239.792271526967
 20
407.4611930762848
 30
0.0
 10
266.0668928724481
 20
457.8768133547527
 30
0.0
 10
277.3274426808257
 20
457.8768133547527
 30
0.0
340
1EF7
213
0.0
223
-6.0
233
0.0
1001
ACAD
1000
DSTYLE
1002
{
1070
   147
1040
0.5
1070
    77
1070
     0
1002
}
  0
MTEXT
  5
1EF7
102
{ACAD_REACTORS
330
1EF6
102
}
330
10FC
100
AcDbEntity
  8
MATM
100
AcDbMText
 10
280.3274426808257
 20
463.8768133547528
 30
0.0
 40
12.0
 41
0.0
 71
     1
 72
     1
  1
{\fTimes New Roman|b0|i0|c186|p18;43.x.0.0.1}
 73
     1
 44
1.0
  0
LEADER
  5
1EF8
330
10FC
100
AcDbEntity
  8
MATM
100
AcDbLeader
  3
ISO-25
 73
     0
 40
12.0
 41
10.5551550108147
 76
     3
 10
407.1401096209207
 20
201.9963107678275
 30
0.0
 10
433.419140184335
 20
170.2037129481996
 30
0.0
 10
444.0784794181786
 20
170.2037129481996
 30
0.0
340
1EF9
213
0.0
223
-6.0
233
0.0
1001
ACAD
1000
DSTYLE
1002
{
1070
   147
1040
0.5
1070
    77
1070
     0
1002
}
  0
MTEXT
  5
1EF9
102
{ACAD_REACTORS
330
1EF8
102
}
330
10FC
100
AcDbEntity
  8
MATM
100
AcDbMText
 10
447.0784794181787
 20
176.2037129481996
 30
0.0
 40
12.0
 41
0.0
 71
     1
 72
     1
  1
{\fTimes New Roman|b0|i0|c186|p18;B}
 73
     1
 44
1.0
  0
CIRCLE
  5
1EFA
330
10FC
100
AcDbEntity
  8
MATM
100
AcDbCircle
 10
384.3283698576324
 20
237.2433681161474
 30
0.0
 40
41.98488445552448
  0
MTEXT
  5
1F6D
330
10FC
100
AcDbEntity
  8
MATM
100
AcDbMText
 10
470.6985131240157
 20
152.9894361344377
 30
0.0
 40
12.0
 41
0.0
 71
     1
 72
     1
  1
{\fTimes New Roman|b0|i0|c186|p18;B}
 73
     1
 44
1.0
  0
MTEXT
  5
2342
102
{ACAD_REACTORS
330
2343
102
}
330
10FC
100
AcDbEntity
  8
MATM
100
AcDbMText
 10
416.857068054805
 20
13.08444718644523
 30
0.0
 40
12.0
 41
0.0
 71
     1
 72
     1
  1
{\fTimes New Roman|b0|i0|c186|p18;2}
 73
     1
 44
1.0
  0
LEADER
  5
2343
330
10FC
100
AcDbEntity
  8
MATM
100
AcDbLeader
  3
ISO-25
 73
     0
 40
12.0
 41
7.743330930064889
 76
     3
 10
376.9186982575475
 20
40.87704500607287
 30
0.0
 10
403.1977288209614
 20
7.084447186445231
 30
0.0
 10
413.8570680548051
 20
7.084447186445231
 30
0.0
340
2342
213
0.0
223
-6.0
233
0.0
1001
ACAD
1000
DSTYLE
1002
{
1070
   147
1040
0.5
1070
    77
1070
     0
1002
}
  0
ARC
  5
23C0
330
10FC
100
AcDbEntity
  8
PAGR
100
AcDbCircle
 10
1.815532425235925E+99
 20
0.0
 30
0.0
 40
1.0
100
AcDbArc
 50
0.0
 51
0.0
  0
ARC
  5
23C1
330
10FC
100
AcDbEntity
  8
PAGR
100
AcDbCircle
 10
1.815532425235925E+99
 20
0.0
 30
0.0
 40
1.0
100
AcDbArc
 50
0.0
 51
0.0
  0
LINE
  5
24BF
330
10FC
100
AcDbEntity
  8
ASYS
100
AcDbLine
 10
3145.009941208869
 20
28.89243773435822
 30
0.0
 11
3497.471195327552
 21
28.89243773435822
 31
0.0
  0
LINE
  5
24C0
330
10FC
100
AcDbEntity
  8
ASYS
100
AcDbLine
 10
3321.243166700945
 20
-121.6395221585929
 30
0.0
 11
3321.243166700945
 21
-265.2745502956564
 31
0.0
  0
LINE
  5
24C1
330
10FC
100
AcDbEntity
  8
ASYS
100
AcDbLine
 10
3321.243166700945
 20
128.0309588556261
 30
0.0
 11
3321.243166700945
 21
-66.40249343671531
 31
0.0
  0
LINE
  5
24C2
330
10FC
100
AcDbEntity
  8
PAGR
100
AcDbLine
 10
3487.243166700945
 20
-139.4945572964897
 30
0.0
 11
3489.243166700946
 21
-139.4945572964898
 31
0.0
  0
LINE
  5
24C3
330
10FC
100
AcDbEntity
  8
PAGR
100
AcDbLine
 10
3153.243166700945
 20
-139.4945572964896
 30
0.0
 11
3155.243166700945
 21
-139.4945572964896
 31
0.0
  0
LINE
  5
24C4
330
10FC
100
AcDbEntity
  8
PAGR
100
AcDbLine
 10
3471.243166700946
 20
121.8924377343581
 30
0.0
 11
3471.243166700946
 21
103.8924377343581
 31
0.0
  0
LINE
  5
24C5
330
10FC
100
AcDbEntity
  8
PAGR
100
AcDbLine
 10
3471.243166700946
 20
103.8924377343581
 30
0.0
 11
3489.243166700946
 21
103.8924377343581
 31
0.0
  0
LINE
  5
24C9
330
10FC
100
AcDbEntity
  8
PAGR
100
AcDbLine
 10
3489.243166700946
 20
-46.10756226564172
 30
0.0
 11
3471.243166700946
 21
-46.10756226564172
 31
0.0
  0
LINE
  5
24CD
330
10FC
100
AcDbEntity
  8
PAGR
100
AcDbLine
 10
3471.243166700946
 20
-46.10756226564172
 30
0.0
 11
3471.243166700946
 21
-64.10756226564171
 31
0.0
  0
LINE
  5
24CE
330
10FC
100
AcDbEntity
  8
PAGR
100
AcDbLine
 10
3471.243166700946
 20
103.8924377343581
 30
0.0
 11
3471.243166700946
 21
-46.10756226564172
 31
0.0
  0
LINE
  5
24CF
330
10FC
100
AcDbEntity
  8
PAGR
100
AcDbLine
 10
3489.243166700946
 20
103.8924377343581
 30
0.0
 11
3489.243166700946
 21
-46.10756226564172
 31
0.0
  0
LINE
  5
24D3
330
10FC
100
AcDbEntity
  8
PAGR
100
AcDbLine
 10
3487.243166700945
 20
-131.4945572964897
 30
0.0
 11
3471.243166700946
 21
-131.4945572964896
 31
0.0
  0
LINE
  5
24D4
330
10FC
100
AcDbEntity
  8
PAGR
100
AcDbLine
 10
3471.243166700946
 20
-129.4945572964895
 30
0.0
 11
3489.243166700946
 21
-129.4945572964897
 31
0.0
  0
LINE
  5
24D6
330
10FC
100
AcDbEntity
  8
PAGR
100
AcDbLine
 10
3487.243166700945
 20
-131.4945572964897
 30
0.0
 11
3487.243166700945
 21
-139.4945572964897
 31
0.0
  0
LINE
  5
24D7
330
10FC
100
AcDbEntity
  8
PAGR
100
AcDbLine
 10
3489.243166700946
 20
-129.4945572964897
 30
0.0
 11
3489.243166700946
 21
-139.4945572964897
 31
0.0
  0
LINE
  5
24D8
330
10FC
100
AcDbEntity
  8
PAGR
100
AcDbLine
 10
3489.243166700946
 20
-129.4945572964895
 30
0.0
 11
3488.243166700945
 21
-129.4945572964895
 31
0.0
  0
LINE
  5
24D9
330
10FC
100
AcDbEntity
  8
PAGR
100
AcDbLine
 10
3489.243166700946
 20
-129.4945572964895
 30
0.0
 11
3488.243166700945
 21
-129.4945572964895
 31
0.0
  0
LINE
  5
24DA
330
10FC
100
AcDbEntity
  8
PAGR
100
AcDbLine
 10
3489.243166700946
 20
-139.4945572964896
 30
0.0
 11
3489.243166700946
 21
-129.4945572964895
 31
0.0
  0
LINE
  5
24DD
330
10FC
100
AcDbEntity
  8
PAGR
100
AcDbLine
 10
3489.243166700946
 20
-214.4945572964896
 30
0.0
 11
3487.243166700945
 21
-214.4945572964895
 31
0.0
  0
LINE
  5
24DE
330
10FC
100
AcDbEntity
  8
PAGR
100
AcDbLine
 10
3471.243166700946
 20
-224.4945572964896
 30
0.0
 11
3489.243166700946
 21
-224.4945572964895
 31
0.0
  0
LINE
  5
24DF
330
10FC
100
AcDbEntity
  8
PAGR
100
AcDbLine
 10
3487.243166700945
 20
-222.4945572964895
 30
0.0
 11
3471.243166700946
 21
-222.4945572964896
 31
0.0
  0
LINE
  5
24E2
330
10FC
100
AcDbEntity
  8
PAGR
100
AcDbLine
 10
3471.243166700946
 20
-224.4945572964896
 30
0.0
 11
3471.243166700946
 21
-214.4945572964895
 31
0.0
  0
LINE
  5
24E3
330
10FC
100
AcDbEntity
  8
PAGR
100
AcDbLine
 10
3489.243166700946
 20
-214.4945572964896
 30
0.0
 11
3489.243166700946
 21
-224.4945572964896
 31
0.0
  0
LINE
  5
24E4
330
10FC
100
AcDbEntity
  8
PAGR
100
AcDbLine
 10
3489.243166700946
 20
-224.4945572964895
 30
0.0
 11
3489.243166700946
 21
-214.4945572964895
 31
0.0
  0
LINE
  5
24E5
330
10FC
100
AcDbEntity
  8
PAGR
100
AcDbLine
 10
3487.243166700944
 20
-222.4945572964895
 30
0.0
 11
3487.243166700945
 21
-215.4945572964896
 31
0.0
  0
LINE
  5
24E6
330
10FC
100
AcDbEntity
  8
PAGR
100
AcDbLine
 10
3487.243166700945
 20
-214.4945572964895
 30
0.0
 11
3487.243166700944
 21
-222.4945572964895
 31
0.0
  0
LINE
  5
24E7
102
{ACAD_REACTORS
330
2DE6
102
}
330
10FC
100
AcDbEntity
  8
PAGR
100
AcDbLine
 10
3280.934799516869
 20
-196.9945572964896
 30
0.0
 11
3471.243166700946
 21
-196.9945572964896
 31
0.0
1001
ACAD
1000
ASC_BOUNDS
1002
{
1070
    19
1005
ED0
1005
ED0
1002
}
  0
LINE
  5
24E8
330
10FC
100
AcDbEntity
  8
PAGR
100
AcDbLine
 10
3471.243166700946
 20
-129.4945572964895
 30
0.0
 11
3471.243166700946
 21
-196.9945572964893
 31
0.0
1001
ACAD
1000
ASC_BOUNDS
1002
{
1070
    19
1005
ED0
1002
}
  0
LINE
  5
24E9
330
10FC
100
AcDbEntity
  8
PAGR
100
AcDbLine
 10
3171.243166700945
 20
103.8924377343581
 30
0.0
 11
3171.243166700945
 21
121.8924377343581
 31
0.0
  0
LINE
  5
24EE
330
10FC
100
AcDbEntity
  8
PAGR
100
AcDbLine
 10
3153.243166700945
 20
103.8924377343581
 30
0.0
 11
3171.243166700945
 21
103.8924377343581
 31
0.0
  0
LINE
  5
24F0
330
10FC
100
AcDbEntity
  8
PAGR
100
AcDbLine
 10
3171.243166700945
 20
-64.10756226564171
 30
0.0
 11
3171.243166700945
 21
-46.10756226564172
 31
0.0
  0
LINE
  5
24F4
330
10FC
100
AcDbEntity
  8
PAGR
100
AcDbLine
 10
3171.243166700945
 20
-46.10756226564172
 30
0.0
 11
3153.243166700945
 21
-46.10756226564172
 31
0.0
  0
LINE
  5
24F6
330
10FC
100
AcDbEntity
  8
PAGR
100
AcDbLine
 10
3171.243166700945
 20
-46.10756226564172
 30
0.0
 11
3171.243166700945
 21
103.8924377343581
 31
0.0
  0
LINE
  5
24F7
330
10FC
100
AcDbEntity
  8
PAGR
100
AcDbLine
 10
3153.243166700945
 20
-46.10756226564172
 30
0.0
 11
3153.243166700945
 21
103.8924377343581
 31
0.0
  0
LINE
  5
24F8
330
10FC
100
AcDbEntity
  8
PAGR
100
AcDbLine
 10
3171.243166700945
 20
-129.4945572964895
 30
0.0
 11
3171.243166700945
 21
-139.4945572964896
 31
0.0
  0
LINE
  5
24F9
330
10FC
100
AcDbEntity
  8
PAGR
100
AcDbLine
 10
3153.243166700945
 20
-139.4945572964896
 30
0.0
 11
3153.243166700945
 21
-129.4945572964895
 31
0.0
  0
LINE
  5
24FA
330
10FC
100
AcDbEntity
  8
PAGR
100
AcDbLine
 10
3153.243166700945
 20
-129.4945572964895
 30
0.0
 11
3154.243166700946
 21
-129.4945572964895
 31
0.0
  0
LINE
  5
24FB
330
10FC
100
AcDbEntity
  8
PAGR
100
AcDbLine
 10
3155.243166700945
 20
-131.4945572964897
 30
0.0
 11
3155.243166700945
 21
-139.4945572964897
 31
0.0
  0
LINE
  5
24FD
330
10FC
100
AcDbEntity
  8
PAGR
100
AcDbLine
 10
3153.243166700945
 20
-129.4945572964895
 30
0.0
 11
3154.243166700946
 21
-129.4945572964895
 31
0.0
  0
LINE
  5
24FF
330
10FC
100
AcDbEntity
  8
PAGR
100
AcDbLine
 10
3155.243166700945
 20
-131.4945572964897
 30
0.0
 11
3171.243166700945
 21
-131.4945572964896
 31
0.0
  0
LINE
  5
2500
330
10FC
100
AcDbEntity
  8
PAGR
100
AcDbLine
 10
3171.243166700945
 20
-129.4945572964895
 30
0.0
 11
3153.243166700945
 21
-129.4945572964897
 31
0.0
  0
LINE
  5
2501
330
10FC
100
AcDbEntity
  8
PAGR
100
AcDbLine
 10
3153.243166700945
 20
-214.4945572964896
 30
0.0
 11
3155.243166700945
 21
-214.4945572964895
 31
0.0
  0
LINE
  5
2503
330
10FC
100
AcDbEntity
  8
PAGR
100
AcDbLine
 10
3153.243166700945
 20
-224.4945572964896
 30
0.0
 11
3154.243166700946
 21
-224.4945572964896
 31
0.0
  0
LINE
  5
2504
330
10FC
100
AcDbEntity
  8
PAGR
100
AcDbLine
 10
3153.243166700945
 20
-224.4945572964896
 30
0.0
 11
3154.243166700946
 21
-224.4945572964896
 31
0.0
  0
LINE
  5
2505
330
10FC
100
AcDbEntity
  8
PAGR
100
AcDbLine
 10
3155.243166700945
 20
-214.4945572964895
 30
0.0
 11
3155.243166700945
 21
-222.4945572964895
 31
0.0
  0
LINE
  5
2506
330
10FC
100
AcDbEntity
  8
PAGR
100
AcDbLine
 10
3155.243166700945
 20
-222.4945572964895
 30
0.0
 11
3155.243166700945
 21
-215.4945572964896
 31
0.0
  0
LINE
  5
2507
330
10FC
100
AcDbEntity
  8
PAGR
100
AcDbLine
 10
3153.243166700945
 20
-224.4945572964895
 30
0.0
 11
3153.243166700945
 21
-214.4945572964895
 31
0.0
  0
LINE
  5
2508
330
10FC
100
AcDbEntity
  8
PAGR
100
AcDbLine
 10
3153.243166700945
 20
-214.4945572964896
 30
0.0
 11
3153.243166700945
 21
-224.4945572964896
 31
0.0
  0
LINE
  5
250A
330
10FC
100
AcDbEntity
  8
PAGR
100
AcDbLine
 10
3155.243166700945
 20
-222.4945572964895
 30
0.0
 11
3171.243166700945
 21
-222.4945572964896
 31
0.0
  0
LINE
  5
250B
330
10FC
100
AcDbEntity
  8
PAGR
100
AcDbLine
 10
3171.243166700945
 20
-224.4945572964896
 30
0.0
 11
3153.243166700945
 21
-224.4945572964895
 31
0.0
  0
LINE
  5
250C
330
10FC
100
AcDbEntity
  8
PAGR
100
AcDbLine
 10
3171.243166700945
 20
-196.9945572964893
 30
0.0
 11
3171.243166700945
 21
-129.4945572964895
 31
0.0
1001
ACAD
1000
ASC_BOUNDS
1002
{
1070
    19
1005
ED0
1002
}
  0
LINE
  5
250E
330
10FC
100
AcDbEntity
  8
PAGR
100
AcDbLine
 10
3171.243166700945
 20
103.8924377343581
 30
0.0
 11
3471.243166700946
 21
103.8924377343581
 31
0.0
  0
LINE
  5
250F
330
10FC
100
AcDbEntity
  8
PAGR
100
AcDbLine
 10
3471.243166700946
 20
-46.10756226564172
 30
0.0
 11
3171.243166700945
 21
-46.10756226564172
 31
0.0
  0
LINE
  5
2510
330
10FC
100
AcDbEntity
  8
PAGR
100
AcDbLine
 10
3171.243166700945
 20
121.8924377343581
 30
0.0
 11
3471.243166700946
 21
121.8924377343581
 31
0.0
  0
LINE
  5
2511
330
10FC
100
AcDbEntity
  8
PAGR
100
AcDbLine
 10
3471.243166700946
 20
-64.10756226564171
 30
0.0
 11
3171.243166700945
 21
-64.10756226564171
 31
0.0
  0
LINE
  5
2513
330
10FC
100
AcDbEntity
  8
PAGR
100
AcDbLine
 10
3171.243166700945
 20
-129.4945572964895
 30
0.0
 11
3471.243166700946
 21
-129.4945572964895
 31
0.0
  0
LINE
  5
2514
330
10FC
100
AcDbEntity
  8
PAGR
100
AcDbLine
 10
3471.243166700946
 20
-139.4945572964896
 30
0.0
 11
3171.243166700945
 21
-139.4945572964896
 31
0.0
  0
LINE
  5
2515
330
10FC
100
AcDbEntity
  8
PAGR
100
AcDbLine
 10
3171.243166700945
 20
-224.4945572964896
 30
0.0
 11
3471.243166700946
 21
-224.4945572964896
 31
0.0
  0
LINE
  5
2516
102
{ACAD_REACTORS
330
2DE6
102
}
330
10FC
100
AcDbEntity
  8
PAGR
100
AcDbLine
 10
3280.934799516869
 20
-196.9945572964896
 30
0.0
 11
3171.243166700945
 21
-196.9945572964896
 31
0.0
1001
ACAD
1000
ASC_BOUNDS
1002
{
1070
    19
1005
ED0
1002
}
  0
LINE
  5
2517
102
{ACAD_REACTORS
330
2DE6
102
}
330
10FC
100
AcDbEntity
  8
PAGR
100
AcDbLine
 10
3471.243166700946
 20
-156.9945572964895
 30
0.0
 11
3171.243166700945
 21
-156.9945572964895
 31
0.0
1001
ACAD
1000
ASC_BOUNDS
1002
{
1070
    19
1005
ED0
1005
ED0
1002
}
  0
LINE
  5
2519
330
10FC
100
AcDbEntity
  8
PAGR
100
AcDbLine
 10
3471.243166700946
 20
-214.4945572964896
 30
0.0
 11
3171.243166700945
 21
-214.4945572964896
 31
0.0
  0
LINE
  5
264C
330
10FC
100
AcDbEntity
  8
0
100
AcDbLine
 10
3569.042617871542
 20
-63.69290737732081
 30
0.0
 11
3569.042617871542
 21
122.3070926226792
 31
0.0
  0
LINE
  5
2650
330
10FC
100
AcDbEntity
  8
0
100
AcDbLine
 10
3569.042617871542
 20
104.3070926226792
 30
0.0
 11
3636.542617871542
 21
104.3070926226792
 31
0.0
  0
LINE
  5
2652
330
10FC
100
AcDbEntity
  8
0
100
AcDbLine
 10
3569.042617871542
 20
-45.69290737732081
 30
0.0
 11
3636.542617871542
 21
-45.69290737732081
 31
0.0
  0
LINE
  5
2654
330
10FC
100
AcDbEntity
  8
0
100
AcDbLine
 10
3569.042617871542
 20
104.3070926226792
 30
0.0
 11
3569.042617871542
 21
122.3070926226792
 31
0.0
  0
LINE
  5
2655
330
10FC
100
AcDbEntity
  8
0
100
AcDbLine
 10
3569.042617871542
 20
122.3070926226792
 30
0.0
 11
3578.042617871542
 21
122.3070926226792
 31
0.0
  0
LINE
  5
265A
330
10FC
100
AcDbEntity
  8
0
100
AcDbLine
 10
3578.042617871542
 20
121.3070926226792
 30
0.0
 11
3570.042617871542
 21
121.3070926226792
 31
0.0
  0
LINE
  5
265B
330
10FC
100
AcDbEntity
  8
0
100
AcDbLine
 10
3570.042617871542
 20
104.3070926226792
 30
0.0
 11
3570.042617871542
 21
121.3070926226792
 31
0.0
  0
LINE
  5
2679
330
10FC
100
AcDbEntity
  8
0
100
AcDbLine
 10
3654.042617871541
 20
121.3070926226792
 30
0.0
 11
3663.042617871542
 21
121.3070926226792
 31
0.0
  0
LINE
  5
267A
330
10FC
100
AcDbEntity
  8
0
100
AcDbLine
 10
3663.042617871542
 20
104.3070926226792
 30
0.0
 11
3663.042617871542
 21
121.3070926226792
 31
0.0
  0
LINE
  5
267B
330
10FC
100
AcDbEntity
  8
0
100
AcDbLine
 10
3664.042617871542
 20
104.3070926226792
 30
0.0
 11
3664.042617871542
 21
122.3070926226792
 31
0.0
  0
LINE
  5
267C
330
10FC
100
AcDbEntity
  8
0
100
AcDbLine
 10
3664.042617871542
 20
-63.69290737732081
 30
0.0
 11
3664.042617871541
 21
122.3070926226792
 31
0.0
  0
LINE
  5
267D
330
10FC
100
AcDbEntity
  8
0
100
AcDbLine
 10
3664.042617871542
 20
122.3070926226792
 30
0.0
 11
3654.042617871542
 21
122.3070926226792
 31
0.0
  0
LINE
  5
2680
330
10FC
100
AcDbEntity
  8
0
100
AcDbLine
 10
3664.042617871542
 20
-63.69290737732081
 30
0.0
 11
3654.042617871542
 21
-63.69290737732081
 31
0.0
  0
LINE
  5
2681
330
10FC
100
AcDbEntity
  8
0
100
AcDbLine
 10
3664.042617871542
 20
122.3070926226792
 30
0.0
 11
3664.042617871541
 21
-63.69290737732081
 31
0.0
  0
LINE
  5
2682
330
10FC
100
AcDbEntity
  8
0
100
AcDbLine
 10
3664.042617871542
 20
-45.69290737732081
 30
0.0
 11
3664.042617871542
 21
-63.69290737732081
 31
0.0
  0
LINE
  5
2683
330
10FC
100
AcDbEntity
  8
0
100
AcDbLine
 10
3663.042617871542
 20
-45.69290737732081
 30
0.0
 11
3663.042617871542
 21
-62.69290737732081
 31
0.0
  0
LINE
  5
2684
330
10FC
100
AcDbEntity
  8
0
100
AcDbLine
 10
3654.042617871541
 20
-62.69290737732081
 30
0.0
 11
3663.042617871542
 21
-62.69290737732081
 31
0.0
  0
LINE
  5
2689
330
10FC
100
AcDbEntity
  8
0
100
AcDbLine
 10
3570.042617871542
 20
-45.69290737732081
 30
0.0
 11
3570.042617871542
 21
-62.69290737732081
 31
0.0
  0
LINE
  5
268A
330
10FC
100
AcDbEntity
  8
0
100
AcDbLine
 10
3579.042617871542
 20
-62.69290737732081
 30
0.0
 11
3570.042617871542
 21
-62.69290737732081
 31
0.0
  0
LINE
  5
268E
330
10FC
100
AcDbEntity
  8
0
100
AcDbLine
 10
3569.042617871542
 20
-63.69290737732081
 30
0.0
 11
3579.042617871542
 21
-63.69290737732081
 31
0.0
  0
LINE
  5
268F
330
10FC
100
AcDbEntity
  8
0
100
AcDbLine
 10
3569.042617871542
 20
-45.69290737732081
 30
0.0
 11
3569.042617871542
 21
-63.69290737732081
 31
0.0
  0
LINE
  5
2692
330
10FC
100
AcDbEntity
  8
0
100
AcDbLine
 10
3569.042617871542
 20
122.3070926226792
 30
0.0
 11
3569.042617871542
 21
-63.69290737732081
 31
0.0
  0
LINE
  5
26A8
330
10FC
100
AcDbEntity
  8
0
100
AcDbLine
 10
3579.042617871542
 20
-62.69290737732081
 30
0.0
 11
3579.042617871542
 21
-63.69290737732081
 31
0.0
  0
LINE
  5
26A9
330
10FC
100
AcDbEntity
  8
0
100
AcDbLine
 10
3654.042617871541
 20
-62.69290737732081
 30
0.0
 11
3654.042617871541
 21
-63.69290737732081
 31
0.0
  0
LINE
  5
26AA
330
10FC
100
AcDbEntity
  8
0
100
AcDbLine
 10
3578.042617871542
 20
121.3070926226792
 30
0.0
 11
3578.042617871542
 21
122.3070926226792
 31
0.0
  0
LINE
  5
26AB
330
10FC
100
AcDbEntity
  8
0
100
AcDbLine
 10
3654.042617871541
 20
121.3070926226792
 30
0.0
 11
3654.042617871541
 21
122.3070926226792
 31
0.0
  0
LINE
  5
26AD
330
10FC
100
AcDbEntity
  8
ASYS
100
AcDbLine
 10
3634.042617871542
 20
-45.69290737732081
 30
0.0
 11
3596.542617871542
 21
-45.69290737732081
 31
0.0
  0
LINE
  5
26AE
102
{ACAD_REACTORS
330
2DE5
102
}
330
10FC
100
AcDbEntity
  8
PAGR
100
AcDbLine
 10
3596.542617871542
 20
-45.69290737732081
 30
0.0
 11
3596.542617871542
 21
104.3070926226792
 31
0.0
  0
LINE
  5
26AF
102
{ACAD_REACTORS
330
2DE5
102
}
330
10FC
100
AcDbEntity
  8
PAGR
100
AcDbLine
 10
3636.542617871542
 20
-45.69290737732081
 30
0.0
 11
3636.542617871542
 21
104.3070926226792
 31
0.0
  0
LINE
  5
2870
330
10FC
100
AcDbEntity
  8
PAGR
100
AcDbLine
 10
3578.042617871542
 20
104.3070926226792
 30
0.0
 11
3578.042617871542
 21
-45.69290737732081
 31
0.0
  0
LINE
  5
2871
330
10FC
100
AcDbEntity
  8
PAGR
100
AcDbLine
 10
3655.042617871542
 20
104.3070926226792
 30
0.0
 11
3655.042617871542
 21
-45.69290737732081
 31
0.0
  0
MTEXT
  5
2973
102
{ACAD_REACTORS
330
2974
102
}
330
10FC
100
AcDbEntity
  8
MATM
100
AcDbMText
 10
297.8618718866737
 20
-8.163042130430312
 30
0.0
 40
8.0
 41
0.0
 71
     9
 72
     1
  1
{\fTimes New Roman|b0|i0|c186|p18;Kad nebūtų tarpo, medžiagas \Psulyditi viena su kita. \P }
 73
     1
 44
1.0
  0
LEADER
  5
2974
330
10FC
100
AcDbEntity
  8
MATM
100
AcDbLeader
  3
ISO-25
 73
     0
 75
     1
 40
35.07618360970921
 41
137.1535688536409
 76
     4
 10
348.2290294297972
 20
116.9370122811524
 30
0.0
 10
315.9136974984631
 20
17.31980806135197
 30
0.0
 10
306.8618718866737
 20
-3.582788181738123
 30
0.0
 10
300.8618718866737
 20
-3.582788181738123
 30
0.0
340
2973
213
0.0
223
4.580253948692188
233
0.0
1001
ACAD
1000
DSTYLE
1002
{
1070
   147
1040
0.5
1070
    77
1070
     0
1002
}
  0
DIMENSION
  5
299D
330
10FC
100
AcDbEntity
  8
PAGR
100
AcDbDimension
  2
*D24
 10
372.6789841807422
 20
75.6941360823921
 30
0.0
 11
361.5789600191638
 21
92.29371774900938
 31
0.0
 70
   160
  1
60
 71
     5
 42
24.44995475094402
  3
ISO-25
100
AcDbAlignedDimension
 13
348.2290294297982
 23
77.26446070172824
 33
0.0
 14
372.6789841807422
 24
73.19869426199557
 34
0.0
100
AcDbRotatedDimension
  0
LINE
  5
2D37
330
10FC
100
AcDbEntity
  8
PAGR
100
AcDbLine
 10
510.7274859626763
 20
85.56287953176939
 30
0.0
 11
510.7274859626763
 21
91.61092422346838
 31
0.0
  0
LINE
  5
2D38
330
10FC
100
AcDbEntity
  8
PAGR
100
AcDbLine
 10
510.7274859626763
 20
91.61092422346838
 30
0.0
 11
510.7274859626763
 21
104.1109242234683
 31
0.0
  0
LINE
  5
2D39
330
10FC
100
AcDbEntity
  8
PAGR
100
AcDbLine
 10
485.6874988150539
 20
86.58917687785697
 30
0.0
 11
485.6874988150539
 21
85.56287953177003
 31
0.0
  0
LINE
  5
2D3A
330
10FC
100
AcDbEntity
  8
PAGR
100
AcDbLine
 10
457.4483397509757
 20
85.56287953177003
 30
0.0
 11
457.4483397509757
 21
84.53658218568305
 31
0.0
  0
LINE
  5
2D3B
330
10FC
100
AcDbEntity
  8
PAGR
100
AcDbLine
 10
485.6874988150539
 20
85.56287953177024
 30
0.0
 11
411.3326918451898
 21
85.55659645567358
 31
0.0
  0
LINE
  5
2D3C
330
10FC
100
AcDbEntity
  8
PAGR
100
AcDbLine
 10
488.5988787202632
 20
64.11368212827529
 30
0.0
 11
416.0748709765321
 21
64.11368212827529
 31
0.0
  0
SPLINE
  5
2D3D
330
10FC
100
AcDbEntity
  8
PAGR
100
AcDbSpline
210
0.0
220
0.0
230
1.0
 70
     8
 71
     3
 72
    10
 73
     6
 74
     0
 42
0.0000000001
 43
0.0000000001
 40
10.4421367398352
 40
10.4421367398352
 40
10.4421367398352
 40
10.4421367398352
 40
20.20287710391927
 40
39.1809252379679
 40
45.45451682254491
 40
45.45451682254491
 40
45.45451682254491
 40
45.45451682254491
 10
415.8484971062489
 20
63.11368212827528
 30
0.0
 10
416.9984296787306
 20
68.29642400830564
 30
0.0
 10
419.8465893158263
 20
77.13864012218178
 30
0.0
 10
412.2555048735703
 20
77.51039076557694
 30
0.0
 10
411.2594376621468
 20
83.33752445448679
 30
0.0
 10
411.3202853103139
 20
86.58289380176075
 30
0.0
  0
LINE
  5
2D3E
330
10FC
100
AcDbEntity
  8
PAGR
100
AcDbLine
 10
489.7274859626759
 20
85.56287953176934
 30
0.0
 11
511.2936922321464
 21
85.56287953176937
 31
0.0
  0
LINE
  5
2D3F
330
10FC
100
AcDbEntity
  8
PAGR
100
AcDbLine
 10
485.6874988150539
 20
86.58917687785697
 30
0.0
 11
411.3202853103139
 21
86.58289380176052
 31
0.0
  0
LINE
  5
2D40
330
10FC
100
AcDbEntity
  8
PAGR
100
AcDbLine
 10
457.4483397509757
 20
84.53658218568307
 30
0.0
 11
489.7274859626763
 21
84.53658218568307
 31
0.0
  0
LINE
  5
2D41
330
10FC
100
AcDbEntity
  8
PAGR
100
AcDbLine
 10
415.8484971062489
 20
63.11368212827528
 30
0.0
 11
488.5988787202627
 21
63.11368212827531
 31
0.0
  0
LINE
  5
2D42
330
10FC
100
AcDbEntity
  8
0
100
AcDbLine
 10
485.6874988150539
 20
85.5628795317698
 30
0.0
 11
488.7274859626759
 21
85.5628795317698
 31
0.0
  0
LINE
  5
2D43
330
10FC
100
AcDbEntity
  8
0
100
AcDbLine
 10
488.7274859626777
 20
84.53658218568307
 30
0.0
 11
488.5988787202632
 21
63.11368212827528
 31
0.0
  0
LINE
  5
2D44
330
10FC
100
AcDbEntity
  8
PAGR
100
AcDbLine
 10
510.7274859626763
 20
104.1109242234683
 30
0.0
 11
510.7274859626768
 21
162.9813408396317
 31
0.0
  0
LINE
  5
2D45
330
10FC
100
AcDbEntity
  8
PAGR
100
AcDbLine
 10
489.7274859626763
 20
84.53658218568307
 30
0.0
 11
489.7274859626763
 21
131.0432036486793
 31
0.0
  0
LINE
  5
2D46
330
10FC
100
AcDbEntity
  8
PAGR
100
AcDbLine
 10
489.7274859626768
 20
162.8551020987029
 30
0.0
 11
489.7274859626763
 21
114.4193979765484
 31
0.0
  0
SPLINE
  5
2D47
330
10FC
100
AcDbEntity
  8
PAGR
100
AcDbSpline
210
0.0
220
0.0
230
1.0
 70
     8
 71
     3
 72
    10
 73
     6
 74
     0
 42
0.0000000001
 43
0.0000000001
 40
8.93586551900721
 40
8.93586551900721
 40
8.93586551900721
 40
8.93586551900721
 40
20.20287710391927
 40
39.1809252379679
 40
47.07613349837709
 40
47.07613349837709
 40
47.07613349837709
 40
47.07613349837709
 10
511.2936922321459
 20
163.250138994219
 30
0.0
 10
507.7740083847011
 20
161.6094890042272
 30
0.0
 10
499.0621197925642
 20
155.9595534170915
 30
0.0
 10
496.7689404221146
 20
163.9147879729057
 30
0.0
 10
490.1904355575452
 20
163.1371876456409
 30
0.0
 10
488.7274859626854
 20
162.5044673152958
 30
0.0
  0
LINE
  5
2D48
330
10FC
100
AcDbEntity
  8
PAGR
100
AcDbLine
 10
511.2936922321459
 20
163.250138994219
 30
0.0
 11
511.2936922321459
 21
85.56287953176939
 31
0.0
  0
LINE
  5
2D49
330
10FC
100
AcDbEntity
  8
PAGR
100
AcDbLine
 10
488.7274859626764
 20
85.5628795317698
 30
0.0
 11
488.7274859626859
 21
162.5044673152956
 31
0.0
  0
MTEXT
  5
2D4A
102
{ACAD_REACTORS
330
2D4B
102
}
330
10FC
100
AcDbEntity
  8
MATM
100
AcDbMText
 10
528.4935072885741
 20
28.52058063486765
 30
0.0
 40
8.0
 41
0.0
 71
     1
 72
     1
  1
{\fTimes New Roman|b0|i0|c186|p18;PG kampas}
 73
     1
 44
1.0
  0
LEADER
  5
2D4B
330
10FC
100
AcDbEntity
  8
MATM
100
AcDbLeader
  3
ISO-25
 73
     0
 40
10.72819033886085
 41
53.52559480894015
 76
     3
 10
497.8983026453615
 20
68.76648382737631
 30
0.0
 10
526.4175051255442
 20
18.62977298111946
 30
0.0
 10
553.42220119384
 20
18.59342360794835
 30
0.0
340
2D4A
213
27.92869390526585
223
-9.927157026919303
233
0.0
1001
ACAD
1000
DSTYLE
1002
{
1070
   147
1040
0.5
1070
    77
1070
     0
1002
}
  0
CIRCLE
  5
2D68
330
10FC
100
AcDbEntity
  8
MATM
100
AcDbCircle
 10
499.2190854210639
 20
75.45891502054292
 30
0.0
 40
4.5
  0
ARC
  5
2D69
330
10FC
100
AcDbEntity
  8
MATM
100
AcDbCircle
 10
505.7944010604406
 20
68.15366495519993
 30
0.0
 40
3.0
100
AcDbArc
 50
270.0
 51
0.0
  0
LINE
  5
2D6A
330
10FC
100
AcDbEntity
  8
MATM
100
AcDbLine
 10
430.7944010604406
 20
82.65366495519993
 30
0.0
 11
491.2944010604405
 21
82.65366495519993
 31
0.0
  0
LINE
  5
2D6B
330
10FC
100
AcDbEntity
  8
MATM
100
AcDbLine
 10
491.2944010604405
 20
143.1536649551999
 30
0.0
 11
491.2944010604405
 21
82.65366495519993
 31
0.0
  0
LINE
  5
2D6C
330
10FC
100
AcDbEntity
  8
MATM
100
AcDbLine
 10
508.7944010604405
 20
143.1536649551999
 30
0.0
 11
491.2944010604405
 21
143.1536649551999
 31
0.0
  0
LINE
  5
2D6D
330
10FC
100
AcDbEntity
  8
MATM
100
AcDbLine
 10
508.7944010604405
 20
68.15366495519993
 30
0.0
 11
508.7944010604405
 21
143.1536649551999
 31
0.0
  0
LINE
  5
2D6E
330
10FC
100
AcDbEntity
  8
MATM
100
AcDbLine
 10
430.7944010604406
 20
65.15366495519993
 30
0.0
 11
505.7944010604406
 21
65.15366495519993
 31
0.0
  0
LINE
  5
2D6F
330
10FC
100
AcDbEntity
  8
MATM
100
AcDbLine
 10
430.7944010604406
 20
82.65366495519993
 30
0.0
 11
430.7944010604406
 21
65.15366495519993
 31
0.0
  0
LEADER
  5
2D77
330
10FC
100
AcDbEntity
  8
MATM
100
AcDbLeader
  3
ISO-25
 73
     0
 40
21.8985820716174
 41
54.51189617880316
 76
     3
 10
499.6675244263023
 20
134.5294062356697
 30
0.0
 10
526.4175051255442
 20
192.7914524851221
 30
0.0
 10
553.0234645672317
 20
195.5451096997421
 30
0.0
340
2D78
213
27.92869390526585
223
-9.927157026919303
233
0.0
1001
ACAD
1000
DSTYLE
1002
{
1070
   147
1040
0.5
1070
    77
1070
     0
1002
}
  0
MTEXT
  5
2D78
102
{ACAD_REACTORS
330
2D77
102
}
330
10FC
100
AcDbEntity
  8
MATM
100
AcDbMText
 10
528.0947706619659
 20
205.4722667266615
 30
0.0
 40
8.0
 41
0.0
 71
     1
 72
     1
  1
{\fTimes New Roman|b0|i0|c186|p18;Kontaktinis \Psuvirinimas}
 73
     1
 44
1.0
  0
ARC
  5
2D7A
330
10FC
100
AcDbEntity
  8
PAGR
100
AcDbCircle
 10
386.6789841807422
 20
236.264040036921
 30
0.0
 40
3.0
100
AcDbArc
 50
270.0
 51
0.0000000000005725
  0
ARC
  5
2D7B
330
10FC
100
AcDbEntity
  8
PAGR
100
AcDbCircle
 10
58.67898418074214
 20
236.264040036921
 30
0.0
 40
3.0
100
AcDbArc
 50
180.0000000000009
 51
270.0
  0
ARC
  5
2D7C
330
10FC
100
AcDbEntity
  8
PAGR
100
AcDbCircle
 10
58.67898418074216
 20
414.2640400369208
 30
0.0
 40
3.0
100
AcDbArc
 50
89.99999999999943
 51
179.9999999999994
  0
ARC
  5
2D7D
330
10FC
100
AcDbEntity
  8
PAGR
100
AcDbCircle
 10
386.6789841807421
 20
414.2640400369208
 30
0.0
 40
3.0
100
AcDbArc
 50
359.9999999999994
 51
90.00000000000062
  0
CIRCLE
  5
2D7E
330
10FC
100
AcDbEntity
  8
MATM
100
AcDbCircle
 10
381.8178858719475
 20
240.5805182737676
 30
0.0
 40
3.49999999999987
  0
CIRCLE
  5
2D7F
330
10FC
100
AcDbEntity
  8
MATM
100
AcDbCircle
 10
381.749420629465
 20
408.9361596596281
 30
0.0
 40
3.49999999999987
  0
CIRCLE
  5
2D80
330
10FC
100
AcDbEntity
  8
MATM
100
AcDbCircle
 10
63.73996050021379
 20
408.9361596596281
 30
0.0
 40
3.49999999999987
  0
CIRCLE
  5
2D81
330
10FC
100
AcDbEntity
  8
MATM
100
AcDbCircle
 10
63.73996050021379
 20
242.0253556855605
 30
0.0
 40
3.49999999999987
  0
LINE
  5
2D95
330
10FC
100
AcDbEntity
  8
MATM
100
AcDbLine
 10
469.9751326679252
 20
359.3657281423143
 30
0.0
 11
791.3490710674759
 21
359.3657281423143
 31
0.0
  0
LINE
  5
2D96
330
10FC
100
AcDbEntity
  8
PAGR
100
AcDbLine
 10
572.9755937026111
 20
260.106625185057
 30
0.0
 11
572.9755937026111
 21
441.022658906877
 31
0.0
  0
LINE
  5
2D97
330
10FC
100
AcDbEntity
  8
PAGR
100
AcDbLine
 10
469.9751326679252
 20
260.106625185057
 30
0.0
 11
469.9751326679252
 21
441.022658906877
 31
0.0
  0
MTEXT
  5
2D98
330
10FC
100
AcDbEntity
  8
PAGR
100
AcDbMText
 10
486.7829782477866
 20
356.2580222832134
 30
0.0
 40
12.0
 41
166.77792
 71
     1
 72
     5
  3
{\fTimes New Roman|b0|i0|c186|p18;4}50{\fTimes New Roman|b0|i0|c186|p18;*4}50{\fTimes New Roman|b0|i0|c186|p18;\P}500{\fTimes New Roman|b0|i0|c186|p18;*}500{\fTimes New Roman|b0|i0|c186|p18;\P\fTimes New Roman|b0|i0|c0|p34;570\fTimes New Roman|b0|i0|
  1
c186|p34;*\fTimes New Roman|b0|i0|c0|p34;570\fTimes New Roman|b0|i0|c186|p34;\P\fTimes New Roman|b0|i0|c0|p34;680\fTimes New Roman|b0|i0|c186|p34;*\fTimes New Roman|b0|i0|c0|p34;680\fTimes New Roman|b0|i0|c186|p18;\P720*720}
 73
     1
 44
1.0
  0
MTEXT
  5
2D9C
330
10FC
100
AcDbEntity
  8
PAGR
100
AcDbMText
 10
726.7112859563867
 20
356.9426672184004
 30
0.0
 40
12.0
 41
166.77792
 71
     1
 72
     5
  1
{\fTimes New Roman|b0|i0|c186|p18;35}0{\fTimes New Roman|b0|i0|c186|p18;\P400\P450\P500\P560}
 73
     1
 44
1.0
  0
LINE
  5
2DA1
330
10FC
100
AcDbEntity
  8
PAGR
100
AcDbLine
 10
791.3490710674759
 20
260.106625185057
 30
0.0
 11
791.3490710674759
 21
441.022658906877
 31
0.0
  0
MTEXT
  5
2DA4
330
10FC
100
AcDbEntity
  8
PAGR
100
AcDbMText
 10
581.1857084128669
 20
356.8929299523974
 30
0.0
 40
12.0
 41
166.77792
 71
     1
 72
     5
  3
{\fTimes New Roman|b0|i0|c186|p18;43.}27{\fTimes New Roman|b0|i0|c186|p18;.0.0.0 SB\P43.2}8{\fTimes New Roman|b0|i0|c186|p18;.0.0.0 SB\P\fTimes New Roman|b0|i0|c186|p34;43.2\fTimes New Roman|b0|i0|c0|p34;9\fTimes New Roman|b0|i0|c186|p34;.0.0.0 SB\P4
  1
3.\fTimes New Roman|b0|i0|c0|p34;30\fTimes New Roman|b0|i0|c186|p34;.0.0.0 SB\fTimes New Roman|b0|i0|c186|p18;\P43.25.0.0.0 SB}
 73
     1
 44
1.0
  0
LINE
  5
2DA8
330
10FC
100
AcDbEntity
  8
PAGR
100
AcDbLine
 10
469.9751326679252
 20
441.022658906877
 30
0.0
 11
791.3490710674759
 21
441.022658906877
 31
0.0
  0
MTEXT
  5
2DA9
330
10FC
100
AcDbEntity
  8
PAGR
100
AcDbMText
 10
496.9607903771657
 20
393.2422048094195
 30
0.0
 40
10.0
 41
137.548
 71
     1
 72
     5
  1
{\fTahoma|b0|i0|c186|p32;   H \P(mm)}
 73
     1
 44
1.0
  0
LINE
  5
2DAA
330
10FC
100
AcDbEntity
  8
PAGR
100
AcDbLine
 10
695.9760547372971
 20
260.106625185057
 30
0.0
 11
695.9760547372971
 21
441.022658906877
 31
0.0
  0
MTEXT
  5
2DAB
330
10FC
100
AcDbEntity
  8
PAGR
100
AcDbMText
 10
473.5027220351612
 20
449.4657636698125
 30
0.0
 40
10.0
 41
137.548
 71
     1
 72
     5
  1
{\fTahoma|b0|i0|c186|p32;\P       LJ_PG \P(langsti jungtis) }
 73
     1
 44
1.0
  0
MTEXT
  5
2DAF
330
10FC
100
AcDbEntity
  8
PAGR
100
AcDbMText
 10
700.7834630342577
 20
413.5676683402598
 30
0.0
 40
10.0
 41
137.548
 71
     1
 72
     5
  1
{\fTahoma|b0|i0|c186|p32;        \fTahoma|b0|i0|c0|p32;VKO\fTahoma|b0|i0|c186|p32;\P(ventiliatorius)}
 73
     1
 44
1.0
  0
MTEXT
  5
2DB8
330
10FC
100
AcDbEntity
  8
PAGR
100
AcDbMText
 10
588.2581035215398
 20
438.2110732070891
 30
0.0
 40
10.0
 41
137.548
 71
     1
 72
     5
  1
{\fTahoma|b0|i0|c186|p32;\P       LJ_PG \P(langsti jungtis) \P        kodas}
 73
     1
 44
1.0
  0
LINE
  5
2DE0
102
{ACAD_REACTORS
330
2DE6
102
}
330
10FC
100
AcDbEntity
  8
MATM
100
AcDbLine
 10
3471.243166700946
 20
-156.9945572964893
 30
0.0
 11
3471.243166700946
 21
-196.9945572964893
 31
0.0
  0
LINE
  5
2DE1
102
{ACAD_REACTORS
330
2DE6
102
}
330
10FC
100
AcDbEntity
  8
MATM
100
AcDbLine
 10
3171.243166700945
 20
-156.9945572964893
 30
0.0
 11
3171.243166700945
 21
-196.9945572964893
 31
0.0
  0
LINE
  5
2DE2
102
{ACAD_REACTORS
330
2DE5
102
}
330
10FC
100
AcDbEntity
  8
MATM
100
AcDbLine
 10
3596.542617871542
 20
104.3070926226792
 30
0.0
 11
3636.542617871542
 21
104.3070926226792
 31
0.0
  0
LINE
  5
2DE3
102
{ACAD_REACTORS
330
2DE5
102
}
330
10FC
100
AcDbEntity
  8
MATM
100
AcDbLine
 10
3596.542617871542
 20
-45.69290737732081
 30
0.0
 11
3636.542617871542
 21
-45.69290737732081
 31
0.0
  0
HATCH
  5
2DE5
330
10FC
100
AcDbEntity
  8
ASYS
100
AcDbHatch
 10
0.0
 20
0.0
 30
0.0
210
0.0
220
0.0
230
1.0
  2
ANSI38
 70
     0
 71
     1
 91
        1
 92
        1
 93
        4
 72
     1
 10
3596.542617871542
 20
-45.69290737732081
 11
3636.542617871542
 21
-45.69290737732081
 72
     1
 10
3636.542617871542
 20
-45.69290737732081
 11
3636.542617871542
 21
104.3070926226792
 72
     1
 10
3636.542617871542
 20
104.3070926226792
 11
3596.542617871542
 21
104.3070926226792
 72
     1
 10
3596.542617871542
 20
104.3070926226792
 11
3596.542617871542
 21
-45.69290737732081
 97
        4
330
2DE3
330
26AF
330
2DE2
330
26AE
 75
     0
 76
     1
 52
0.0
 41
30.0
 77
     0
 78
     2
 53
45.0
 43
-6228.65756285978
 44
3436.293850650279
 45
-2.651650429449552
 46
2.651650429449553
 79
     0
 53
135.0
 43
-6228.65756285978
 44
3436.293850650279
 45
-7.954951288348659
 46
2.651650429449553
 79
     2
 49
9.375
 49
-5.625
 98
        1
 10
-6228.65756285978
 20
3436.293850650279
  0
HATCH
  5
2DE6
330
10FC
100
AcDbEntity
  8
ASYS
100
AcDbHatch
 10
0.0
 20
0.0
 30
0.0
210
0.0
220
0.0
230
1.0
  2
ANSI38
 70
     0
 71
     1
 91
        1
 92
        1
 93
        5
 72
     1
 10
3471.243166700946
 20
-156.9945572964893
 11
3471.243166700946
 21
-196.9945572964893
 72
     1
 10
3471.243166700946
 20
-196.9945572964896
 11
3280.934799516869
 21
-196.9945572964896
 72
     1
 10
3280.934799516869
 20
-196.9945572964896
 11
3171.243166700945
 21
-196.9945572964896
 72
     1
 10
3171.243166700945
 20
-196.9945572964893
 11
3171.243166700945
 21
-156.9945572964893
 72
     1
 10
3171.243166700945
 20
-156.9945572964895
 11
3471.243166700946
 21
-156.9945572964895
 97
        5
330
2DE0
330
24E7
330
2516
330
2DE1
330
2517
 75
     0
 76
     1
 52
0.0
 41
30.0
 77
     0
 78
     2
 53
45.0
 43
-6228.65756285978
 44
3436.293850650279
 45
-2.651650429449552
 46
2.651650429449553
 79
     0
 53
135.0
 43
-6228.65756285978
 44
3436.293850650279
 45
-7.954951288348659
 46
2.651650429449553
 79
     2
 49
9.375
 49
-5.625
 98
        1
 10
-6228.65756285978
 20
3436.293850650279
  0
LINE
  5
2DEA
330
10FC
100
AcDbEntity
  8
0
100
AcDbLine
 10
442.077059832809
 20
79.14898995905241
 30
0.0
 11
431.9573797559715
 21
68.50160114523896
 31
0.0
  0
LINE
  5
2DEB
330
10FC
100
AcDbEntity
  8
0
100
AcDbLine
 10
431.9573797559715
 20
79.14898995905241
 30
0.0
 11
442.077059832809
 21
68.50160114523896
 31
0.0
  0
LINE
  5
2DEC
330
10FC
100
AcDbEntity
  8
0
100
AcDbLine
 10
454.3273128815926
 20
79.14898995905241
 30
0.0
 11
464.4469929584301
 21
68.50160114523896
 31
0.0
  0
LINE
  5
2DED
330
10FC
100
AcDbEntity
  8
0
100
AcDbLine
 10
464.4469929584301
 20
79.14898995905241
 30
0.0
 11
454.3273128815926
 21
68.50160114523896
 31
0.0
  0
LINE
  5
2DEE
330
10FC
100
AcDbEntity
  8
0
100
AcDbLine
 10
485.5738597618183
 20
79.14898995905241
 30
0.0
 11
475.4541796849808
 21
68.50160114523896
 31
0.0
  0
LINE
  5
2DEF
330
10FC
100
AcDbEntity
  8
0
100
AcDbLine
 10
475.4541796849808
 20
79.14898995905241
 30
0.0
 11
485.5738597618183
 21
68.50160114523896
 31
0.0
  0
LINE
  5
2DF0
330
10FC
100
AcDbEntity
  8
0
100
AcDbLine
 10
494.9972741615493
 20
97.63234785963142
 30
0.0
 11
505.1169542383868
 21
86.98495904581795
 31
0.0
  0
LINE
  5
2DF1
330
10FC
100
AcDbEntity
  8
0
100
AcDbLine
 10
505.1169542383868
 20
97.63234785963142
 30
0.0
 11
494.9972741615493
 21
86.98495904581795
 31
0.0
  0
LINE
  5
2DF2
330
10FC
100
AcDbEntity
  8
0
100
AcDbLine
 10
505.1169542383868
 20
116.6203557019034
 30
0.0
 11
494.9972741615493
 21
105.97296688809
 31
0.0
  0
LINE
  5
2DF3
330
10FC
100
AcDbEntity
  8
0
100
AcDbLine
 10
494.9972741615493
 20
116.6203557019034
 30
0.0
 11
505.1169542383868
 21
105.97296688809
 31
0.0
  0
LINE
  5
2DF4
330
10FC
100
AcDbEntity
  8
0
100
AcDbLine
 10
494.9972741615493
 20
139.5124530971079
 30
0.0
 11
505.1169542383868
 21
128.8650642832945
 31
0.0
  0
LINE
  5
2DF5
330
10FC
100
AcDbEntity
  8
0
100
AcDbLine
 10
505.1169542383868
 20
139.5124530971079
 30
0.0
 11
494.9972741615493
 21
128.8650642832945
 31
0.0
  0
LINE
  5
2E08
330
10FC
100
AcDbEntity
  8
PAGR
100
AcDbLine
 10
469.9751326679252
 20
260.106625185057
 30
0.0
 11
791.3490710674759
 21
260.106625185057
 31
0.0
  0
LINE
  5
2E7E
330
10FC
100
AcDbEntity
  8
PAGR
100
AcDbLine
 10
3153.243166700945
 20
103.8924377343583
 30
0.0
 11
3153.243166700945
 21
112.8924377343583
 31
0.0
  0
LINE
  5
2E7F
330
10FC
100
AcDbEntity
  8
PAGR
100
AcDbLine
 10
3171.243166700945
 20
121.8924377343583
 30
0.0
 11
3162.243166700945
 21
121.8924377343583
 31
0.0
  0
LINE
  5
2E80
330
10FC
100
AcDbEntity
  8
PAGR
100
AcDbLine
 10
3162.243166700945
 20
121.8924377343583
 30
0.0
 11
3153.243166700945
 21
112.8924377343583
 31
0.0
  0
LINE
  5
2E81
330
10FC
100
AcDbEntity
  8
PAGR
100
AcDbLine
 10
3480.243166452698
 20
121.8835527708201
 30
0.0
 11
3489.242663516183
 21
112.8830498624074
 31
0.0
  0
LINE
  5
2E82
330
10FC
100
AcDbEntity
  8
PAGR
100
AcDbLine
 10
3471.243166466751
 20
121.8840556932845
 30
0.0
 11
3480.243166452698
 21
121.8835527708201
 31
0.0
  0
LINE
  5
2E83
330
10FC
100
AcDbEntity
  8
PAGR
100
AcDbLine
 10
3489.242160593718
 20
103.8830498764591
 30
0.0
 11
3489.242663516183
 21
112.8830498624074
 31
0.0
  0
LINE
  5
2E84
330
10FC
100
AcDbEntity
  8
PAGR
100
AcDbLine
 10
3489.242160593718
 20
103.8830498764589
 30
0.0
 11
3471.242160621822
 21
103.8840557213878
 31
0.0
  0
LINE
  5
2E85
330
10FC
100
AcDbEntity
  8
PAGR
100
AcDbLine
 10
3471.242160621822
 20
103.8840557213878
 30
0.0
 11
3471.243166466751
 21
121.8840556932843
 31
0.0
  0
LINE
  5
2E86
330
10FC
100
AcDbEntity
  8
PAGR
100
AcDbLine
 10
3162.243166700945
 20
-64.10756226564171
 30
0.0
 11
3153.243166700945
 21
-55.10756226564172
 31
0.0
  0
LINE
  5
2E87
330
10FC
100
AcDbEntity
  8
PAGR
100
AcDbLine
 10
3171.243166700945
 20
-64.10756226564171
 30
0.0
 11
3162.243166700945
 21
-64.10756226564171
 31
0.0
  0
LINE
  5
2E88
330
10FC
100
AcDbEntity
  8
PAGR
100
AcDbLine
 10
3153.243166700945
 20
-46.10756226564172
 30
0.0
 11
3153.243166700945
 21
-55.10756226564172
 31
0.0
  0
LINE
  5
2E89
330
10FC
100
AcDbEntity
  8
PAGR
100
AcDbLine
 10
3153.243166700945
 20
-46.10756226564155
 30
0.0
 11
3171.243166700945
 21
-46.10756226564155
 31
0.0
  0
LINE
  5
2E8A
330
10FC
100
AcDbEntity
  8
PAGR
100
AcDbLine
 10
3171.243166700945
 20
-46.10756226564155
 30
0.0
 11
3171.243166700945
 21
-64.10756226564155
 31
0.0
  0
LINE
  5
2E8B
330
10FC
100
AcDbEntity
  8
PAGR
100
AcDbLine
 10
3471.242160621822
 20
-46.09918025267126
 30
0.0
 11
3471.243166466751
 21
-64.09918022456782
 31
0.0
  0
LINE
  5
2E8C
330
10FC
100
AcDbEntity
  8
PAGR
100
AcDbLine
 10
3489.242160593718
 20
-46.0981744077424
 30
0.0
 11
3471.242160621822
 21
-46.09918025267126
 31
0.0
  0
LINE
  5
2E8D
330
10FC
100
AcDbEntity
  8
PAGR
100
AcDbLine
 10
3489.242160593718
 20
-46.09817440774257
 30
0.0
 11
3489.242663516183
 21
-55.09817439369085
 31
0.0
  0
LINE
  5
2E8E
330
10FC
100
AcDbEntity
  8
PAGR
100
AcDbLine
 10
3471.243166466751
 20
-64.09918022456799
 30
0.0
 11
3480.243166452698
 21
-64.09867730210357
 31
0.0
  0
LINE
  5
2E8F
330
10FC
100
AcDbEntity
  8
PAGR
100
AcDbLine
 10
3480.243166452698
 20
-64.09867730210357
 30
0.0
 11
3489.242663516183
 21
-55.09817439369085
 31
0.0
  0
LINE
  5
2E90
330
10FC
100
AcDbEntity
  8
PAGR
100
AcDbLine
 10
3471.243166700946
 20
-46.10756226564155
 30
0.0
 11
3489.243166700946
 21
-46.10756226564155
 31
0.0
  0
LINE
  5
2E91
330
10FC
100
AcDbEntity
  8
PAGR
100
AcDbLine
 10
3471.243166700946
 20
-64.10756226564155
 30
0.0
 11
3471.243166700946
 21
-46.10756226564155
 31
0.0
  0
LINE
  5
2E92
330
10FC
100
AcDbEntity
  8
PAGR
100
AcDbLine
 10
3636.542617871542
 20
104.3070926226792
 30
0.0
 11
3664.042617871542
 21
104.3070926226792
 31
0.0
  0
LINE
  5
2E93
330
10FC
100
AcDbEntity
  8
PAGR
100
AcDbLine
 10
3636.542617871542
 20
-45.69290737732081
 30
0.0
 11
3664.042617871542
 21
-45.69290737732081
 31
0.0
  0
LINE
  5
2E94
330
10FC
100
AcDbEntity
  8
PAGR
100
AcDbLine
 10
3171.243166700945
 20
-196.9945572964893
 30
0.0
 11
3171.243166700945
 21
-224.4945572964898
 31
0.0
  0
LINE
  5
2E95
330
10FC
100
AcDbEntity
  8
PAGR
100
AcDbLine
 10
3471.243166700946
 20
-214.4945572964894
 30
0.0
 11
3471.243166700946
 21
-196.9945572964893
 31
0.0
  0
VIEWPORT
  5
1FB5
330
1FB4
100
AcDbEntity
 67
     1
  8
0
100
AcDbViewport
 10
1810.12257317686
 20
1236.951587284384
 30
0.0
 40
5724.206632873327
 41
2583.024986556599
 68
     1
 69
     1
 12
1810.12257317686
 22
1236.951587284384
 13
0.0
 23
0.0
 14
10.0
 24
10.0
 15
10.0
 25
10.0
 16
0.0
 26
0.0
 36
1.0
 17
0.0
 27
0.0
 37
0.0
 42
50.0
 43
0.0
 44
0.0
 45
2583.024986556599
 50
0.0
 51
0.0
 72
   100
331
1FAE
331
1FAF
 90
    32800
  1

281
     0
 71
     1
 74
     0
110
0.0
120
0.0
130
0.0
111
1.0
121
0.0
131
0.0
112
0.0
122
1.0
132
0.0
 79
     0
146
0.0
170
     0
  0
VIEWPORT
  5
1FB6
330
1FB4
100
AcDbEntity
 67
     1
  8
0
100
AcDbViewport
 10
1852.715862084503
 20
1236.951523537469
 30
0.0
 40
3160.0
 41
2296.0
 68
     2
 69
     2
 12
419.3012499557226
 22
177.401048629836
 13
0.0
 23
0.0
 14
10.0
 24
10.0
 15
10.0
 25
10.0
 16
0.0
 26
0.0
 36
1.0
 17
0.0
 27
0.0
 37
0.0
 42
50.0
 43
0.0
 44
0.0
 45
629.9254880770481
 50
0.0
 51
0.0
 72
   100
 90
    32800
  1

281
     0
 71
     1
 74
     0
110
-6228.65756285978
120
3436.293850650279
130
0.0
111
1.0
121
0.0
131
0.0
112
0.0
122
1.0
132
0.0
 79
     0
146
0.0
170
     0
  0
LWPOLYLINE
  5
1FB7
330
1FB4
100
AcDbEntity
 67
     1
  8
0
100
AcDbPolyline
 90
        4
 70
     1
 43
4.0
 10
272.7158620845035
 20
88.95152353746926
 10
272.7158620845035
 20
2384.951523537469
 10
3432.715862084503
 20
2384.951523537469
 10
3432.715862084503
 20
88.95152353746926
  0
LWPOLYLINE
  5
1FB8
330
1FB4
100
AcDbEntity
 67
     1
  8
0
100
AcDbPolyline
 90
        4
 70
     1
 43
0.0
 10
112.7158620845034
 20
48.95152353746926
 10
112.7158620845034
 20
2424.951523537469
 10
3472.715862084504
 20
2424.951523537469
 10
3472.715862084504
 20
48.95152353746926
  0
LINE
  5
1FB9
330
1FB4
100
AcDbEntity
 67
     1
  8
0
100
AcDbLine
 10
1952.715862084503
 20
128.9515235374692
 30
0.0
 11
2472.715862084504
 21
128.9515235374692
 31
0.0
  0
LINE
  5
1FBA
330
1FB4
100
AcDbEntity
 67
     1
  8
0
100
AcDbLine
 10
1952.715862084503
 20
168.9515235374692
 30
0.0
 11
2472.715862084504
 21
168.9515235374692
 31
0.0
  0
LINE
  5
1FBB
330
1FB4
100
AcDbEntity
 67
     1
  8
0
100
AcDbLine
 10
1952.715862084503
 20
208.9515235374693
 30
0.0
 11
2472.715862084504
 21
208.9515235374693
 31
0.0
  0
LINE
  5
1FBC
330
1FB4
100
AcDbEntity
 67
     1
  8
0
100
AcDbLine
 10
1952.715862084503
 20
248.9515235374692
 30
0.0
 11
2472.715862084504
 21
248.9515235374692
 31
0.0
  0
LINE
  5
1FBD
330
1FB4
100
AcDbEntity
 67
     1
  8
0
100
AcDbLine
 10
1952.715862084503
 20
288.9515235374692
 30
0.0
 11
2472.715862084504
 21
288.9515235374692
 31
0.0
  0
LINE
  5
1FBE
330
1FB4
100
AcDbEntity
 67
     1
  8
0
100
AcDbLine
 10
1952.715862084503
 20
408.9515235374692
 30
0.0
 11
2472.715862084504
 21
408.9515235374692
 31
0.0
  0
LINE
  5
1FBF
330
1FB4
100
AcDbEntity
 67
     1
  8
0
100
AcDbLine
 10
1952.715862084503
 20
448.9515235374692
 30
0.0
 11
2472.715862084504
 21
448.9515235374692
 31
0.0
  0
LINE
  5
1FC0
330
1FB4
100
AcDbEntity
 67
     1
  8
0
100
AcDbLine
 10
1952.715862084503
 20
488.9515235374692
 30
0.0
 11
2472.715862084504
 21
488.9515235374692
 31
0.0
  0
TRACE
  5
1FC1
330
1FB4
100
AcDbEntity
 67
     1
  8
0
100
AcDbTrace
 10
2472.715862084504
 20
528.9515235374692
 30
0.0
 11
2472.715862084504
 21
528.9515235374692
 31
0.0
 12
2472.715862084504
 22
88.95152353746926
 32
0.0
 13
2472.715862084504
 23
88.95152353746926
 33
0.0
  0
TRACE
  5
1FC2
330
1FB4
100
AcDbEntity
 67
     1
  8
0
100
AcDbTrace
 10
2276.715862084504
 20
92.95152353746926
 30
0.0
 11
2268.715862084504
 21
84.95152353746926
 31
0.0
 12
2272.715862084504
 22
92.95152353746926
 32
0.0
 13
2272.715862084504
 23
84.95152353746926
 33
0.0
  0
TRACE
  5
1FC3
330
1FB4
100
AcDbEntity
 67
     1
  8
0
100
AcDbTrace
 10
2472.715862084504
 20
88.95152353746926
 30
0.0
 11
2472.715862084504
 21
88.95152353746926
 31
0.0
 12
2472.715862084504
 22
88.95152353746926
 32
0.0
 13
2472.715862084504
 23
88.95152353746926
 33
0.0
  0
LINE
  5
1FC4
330
1FB4
100
AcDbEntity
 67
     1
  8
0
100
AcDbLine
 10
2472.715862084504
 20
208.9515235374693
 30
0.0
 11
2472.715862084504
 21
168.9515235374692
 31
0.0
  0
TRACE
  5
1FC5
330
1FB4
100
AcDbEntity
 67
     1
  8
0
100
AcDbTrace
 10
2472.715862084504
 20
372.9515235374693
 30
0.0
 11
2472.715862084504
 21
364.9515235374693
 31
0.0
 12
2472.715862084504
 22
372.9515235374693
 32
0.0
 13
2472.715862084504
 23
364.9515235374693
 33
0.0
  0
LINE
  5
1FC6
330
1FB4
100
AcDbEntity
 67
     1
  8
0
100
AcDbLine
 10
3072.715862084504
 20
208.9515235374693
 30
0.0
 11
3112.715862084503
 21
208.9515235374693
 31
0.0
  0
LINE
  5
1FC7
330
1FB4
100
AcDbEntity
 67
     1
  8
0
100
AcDbLine
 10
3072.715862084504
 20
368.9515235374693
 30
0.0
 11
3072.715862084504
 21
248.9515235374692
 31
0.0
  0
LINE
  5
1FC8
330
1FB4
100
AcDbEntity
 67
     1
  8
0
100
AcDbLine
 10
3112.715862084503
 20
368.9515235374693
 30
0.0
 11
3112.715862084503
 21
248.9515235374692
 31
0.0
  0
LWPOLYLINE
  5
1FC9
330
1FB4
100
AcDbEntity
 67
     1
  8
0
100
AcDbPolyline
 90
        4
 70
     1
 43
4.0
 10
1952.715862084503
 20
88.95152353746926
 10
1952.715862084503
 20
528.9515235374692
 10
3432.715862084503
 20
528.9515235374692
 10
3432.715862084503
 20
88.95152353746926
  0
TRACE
  5
1FCA
330
1FB4
100
AcDbEntity
 67
     1
  8
0
100
AcDbTrace
 10
2472.715862084504
 20
410.9515235374692
 30
0.0
 11
2472.715862084504
 21
406.9515235374693
 31
0.0
 12
3434.715862084504
 22
410.9515235374692
 32
0.0
 13
3430.715862084504
 23
406.9515235374693
 33
0.0
  0
TRACE
  5
1FCB
330
1FB4
100
AcDbEntity
 67
     1
  8
0
100
AcDbTrace
 10
3434.715862084504
 20
410.9515235374692
 30
0.0
 11
3430.715862084504
 21
406.9515235374693
 31
0.0
 12
3434.715862084504
 22
328.9515235374693
 32
0.0
 13
3430.715862084504
 23
328.9515235374693
 33
0.0
  0
TRACE
  5
1FCC
330
1FB4
100
AcDbEntity
 67
     1
  8
0
100
AcDbTrace
 10
2472.715862084504
 20
210.9515235374693
 30
0.0
 11
2472.715862084504
 21
206.9515235374693
 31
0.0
 12
3432.715862084503
 22
210.9515235374693
 32
0.0
 13
3432.715862084503
 23
206.9515235374693
 33
0.0
  0
TRACE
  5
1FCD
330
1FB4
100
AcDbEntity
 67
     1
  8
0
100
AcDbTrace
 10
3432.715862084503
 20
210.9515235374693
 30
0.0
 11
3432.715862084503
 21
206.9515235374693
 31
0.0
 12
3432.715862084503
 22
210.9515235374693
 32
0.0
 13
3432.715862084503
 23
206.9515235374693
 33
0.0
  0
TRACE
  5
1FCE
330
1FB4
100
AcDbEntity
 67
     1
  8
0
100
AcDbTrace
 10
3030.715862084504
 20
208.9515235374693
 30
0.0
 11
3034.715862084504
 21
208.9515235374693
 31
0.0
 12
3030.715862084504
 22
408.9515235374692
 32
0.0
 13
3034.715862084504
 23
408.9515235374692
 33
0.0
  0
TRACE
  5
1FCF
330
1FB4
100
AcDbEntity
 67
     1
  8
0
100
AcDbTrace
 10
3034.715862084504
 20
408.9515235374692
 30
0.0
 11
3030.715862084504
 21
408.9515235374692
 31
0.0
 12
3034.715862084504
 22
288.9515235374692
 32
0.0
 13
3030.715862084504
 23
288.9515235374692
 33
0.0
  0
TRACE
  5
1FD0
330
1FB4
100
AcDbEntity
 67
     1
  8
0
100
AcDbTrace
 10
3154.715862084504
 20
408.9515235374692
 30
0.0
 11
3150.715862084504
 21
408.9515235374692
 31
0.0
 12
3154.715862084504
 22
248.9515235374692
 32
0.0
 13
3150.715862084504
 23
248.9515235374692
 33
0.0
  0
TRACE
  5
1FD1
330
1FB4
100
AcDbEntity
 67
     1
  8
0
100
AcDbTrace
 10
3154.715862084504
 20
210.9515235374693
 30
0.0
 11
3150.715862084504
 21
206.9515235374693
 31
0.0
 12
3152.715862084504
 22
210.9515235374693
 32
0.0
 13
3152.715862084504
 23
206.9515235374693
 33
0.0
  0
TRACE
  5
1FD2
330
1FB4
100
AcDbEntity
 67
     1
  8
0
100
AcDbTrace
 10
3032.715862084504
 20
370.9515235374693
 30
0.0
 11
3032.715862084504
 21
366.9515235374693
 31
0.0
 12
3432.715862084503
 22
370.9515235374693
 32
0.0
 13
3432.715862084503
 23
366.9515235374693
 33
0.0
  0
TRACE
  5
1FD3
330
1FB4
100
AcDbEntity
 67
     1
  8
0
100
AcDbTrace
 10
3432.715862084503
 20
370.9515235374693
 30
0.0
 11
3432.715862084503
 21
366.9515235374693
 31
0.0
 12
3432.715862084503
 22
370.9515235374693
 32
0.0
 13
3432.715862084503
 23
366.9515235374693
 33
0.0
  0
TRACE
  5
1FD4
330
1FB4
100
AcDbEntity
 67
     1
  8
0
100
AcDbTrace
 10
1952.715862084503
 20
370.9515235374693
 30
0.0
 11
1952.715862084503
 21
366.9515235374693
 31
0.0
 12
2472.715862084504
 22
370.9515235374693
 32
0.0
 13
2472.715862084504
 23
366.9515235374693
 33
0.0
  0
TRACE
  5
1FD5
330
1FB4
100
AcDbEntity
 67
     1
  8
0
100
AcDbTrace
 10
1952.715862084503
 20
330.9515235374693
 30
0.0
 11
1952.715862084503
 21
326.9515235374693
 31
0.0
 12
2470.715862084503
 22
330.9515235374693
 32
0.0
 13
2474.715862084504
 23
326.9515235374693
 33
0.0
  0
TRACE
  5
1FD6
330
1FB4
100
AcDbEntity
 67
     1
  8
0
100
AcDbTrace
 10
2470.715862084503
 20
330.9515235374693
 30
0.0
 11
2474.715862084504
 21
326.9515235374693
 31
0.0
 12
2470.715862084503
 22
368.9515235374693
 32
0.0
 13
2474.715862084504
 23
368.9515235374693
 33
0.0
  0
TRACE
  5
1FD7
330
1FB4
100
AcDbEntity
 67
     1
  8
0
100
AcDbTrace
 10
2012.715862084503
 20
530.9515235374692
 30
0.0
 11
2012.715862084503
 21
526.9515235374692
 31
0.0
 12
2012.715862084503
 22
530.9515235374692
 32
0.0
 13
2012.715862084503
 23
526.9515235374692
 33
0.0
  0
TRACE
  5
1FD8
330
1FB4
100
AcDbEntity
 67
     1
  8
0
100
AcDbTrace
 10
2012.715862084503
 20
530.9515235374692
 30
0.0
 11
2012.715862084503
 21
526.9515235374692
 31
0.0
 12
2032.715862084504
 22
530.9515235374692
 32
0.0
 13
2032.715862084504
 23
526.9515235374692
 33
0.0
  0
TRACE
  5
1FD9
330
1FB4
100
AcDbEntity
 67
     1
  8
0
100
AcDbTrace
 10
2032.715862084504
 20
530.9515235374692
 30
0.0
 11
2032.715862084504
 21
526.9515235374692
 31
0.0
 12
2094.715862084504
 22
530.9515235374692
 32
0.0
 13
2090.715862084504
 23
526.9515235374692
 33
0.0
  0
TRACE
  5
1FDA
330
1FB4
100
AcDbEntity
 67
     1
  8
0
100
AcDbTrace
 10
2094.715862084504
 20
530.9515235374692
 30
0.0
 11
2090.715862084504
 21
526.9515235374692
 31
0.0
 12
2094.715862084504
 22
90.95152353746925
 32
0.0
 13
2090.715862084504
 23
86.95152353746925
 33
0.0
  0
TRACE
  5
1FDB
330
1FB4
100
AcDbEntity
 67
     1
  8
0
100
AcDbTrace
 10
2094.715862084504
 20
90.95152353746925
 30
0.0
 11
2090.715862084504
 21
86.95152353746925
 31
0.0
 12
2092.715862084503
 22
90.95152353746925
 32
0.0
 13
2092.715862084503
 23
86.95152353746925
 33
0.0
  0
TRACE
  5
1FDC
330
1FB4
100
AcDbEntity
 67
     1
  8
0
100
AcDbTrace
 10
2274.715862084503
 20
528.9515235374692
 30
0.0
 11
2270.715862084504
 21
528.9515235374692
 31
0.0
 12
2274.715862084503
 22
90.95152353746925
 32
0.0
 13
2270.715862084504
 23
86.95152353746925
 33
0.0
  0
TRACE
  5
1FDD
330
1FB4
100
AcDbEntity
 67
     1
  8
0
100
AcDbTrace
 10
2274.715862084503
 20
90.95152353746925
 30
0.0
 11
2270.715862084504
 21
86.95152353746925
 31
0.0
 12
2272.715862084504
 22
90.95152353746925
 32
0.0
 13
2272.715862084504
 23
86.95152353746925
 33
0.0
  0
TRACE
  5
1FDE
330
1FB4
100
AcDbEntity
 67
     1
  8
0
100
AcDbTrace
 10
2274.715862084503
 20
528.9515235374692
 30
0.0
 11
2270.715862084504
 21
528.9515235374692
 31
0.0
 12
2274.715862084503
 22
90.95152353746925
 32
0.0
 13
2270.715862084504
 23
86.95152353746925
 33
0.0
  0
TRACE
  5
1FDF
330
1FB4
100
AcDbEntity
 67
     1
  8
0
100
AcDbTrace
 10
2274.715862084503
 20
90.95152353746925
 30
0.0
 11
2270.715862084504
 21
86.95152353746925
 31
0.0
 12
2272.715862084504
 22
90.95152353746925
 32
0.0
 13
2272.715862084504
 23
86.95152353746925
 33
0.0
  0
TRACE
  5
1FE0
330
1FB4
100
AcDbEntity
 67
     1
  8
0
100
AcDbTrace
 10
2474.715862084504
 20
528.9515235374692
 30
0.0
 11
2470.715862084503
 21
528.9515235374692
 31
0.0
 12
2474.715862084504
 22
90.95152353746925
 32
0.0
 13
2470.715862084503
 23
86.95152353746925
 33
0.0
  0
TRACE
  5
1FE1
330
1FB4
100
AcDbEntity
 67
     1
  8
0
100
AcDbTrace
 10
2474.715862084504
 20
90.95152353746925
 30
0.0
 11
2470.715862084503
 21
86.95152353746925
 31
0.0
 12
2472.715862084504
 22
90.95152353746925
 32
0.0
 13
2472.715862084504
 23
86.95152353746925
 33
0.0
  0
TRACE
  5
1FE2
330
1FB4
100
AcDbEntity
 67
     1
  8
0
100
AcDbTrace
 10
1952.715862084503
 20
370.9515235374693
 30
0.0
 11
1952.715862084503
 21
366.9515235374693
 31
0.0
 12
2472.715862084504
 22
370.9515235374693
 32
0.0
 13
2472.715862084504
 23
366.9515235374693
 33
0.0
  0
TRACE
  5
1FE3
330
1FB4
100
AcDbEntity
 67
     1
  8
0
100
AcDbTrace
 10
2472.715862084504
 20
370.9515235374693
 30
0.0
 11
2472.715862084504
 21
366.9515235374693
 31
0.0
 12
2472.715862084504
 22
370.9515235374693
 32
0.0
 13
2472.715862084504
 23
366.9515235374693
 33
0.0
  0
TRACE
  5
1FE4
330
1FB4
100
AcDbEntity
 67
     1
  8
0
100
AcDbTrace
 10
1992.715862084503
 20
328.9515235374693
 30
0.0
 11
1992.715862084503
 21
328.9515235374693
 31
0.0
 12
1952.715862084503
 22
328.9515235374693
 32
0.0
 13
1952.715862084503
 23
328.9515235374693
 33
0.0
  0
TRACE
  5
1FE5
330
1FB4
100
AcDbEntity
 67
     1
  8
0
100
AcDbTrace
 10
1952.715862084503
 20
328.9515235374693
 30
0.0
 11
1952.715862084503
 21
328.9515235374693
 31
0.0
 12
2472.715862084504
 22
328.9515235374693
 32
0.0
 13
2472.715862084504
 23
328.9515235374693
 33
0.0
  0
TRACE
  5
1FE6
330
1FB4
100
AcDbEntity
 67
     1
  8
0
100
AcDbTrace
 10
2472.715862084504
 20
328.9515235374693
 30
0.0
 11
2472.715862084504
 21
328.9515235374693
 31
0.0
 12
2472.715862084504
 22
328.9515235374693
 32
0.0
 13
2472.715862084504
 23
328.9515235374693
 33
0.0
  0
TRACE
  5
1FE7
330
1FB4
100
AcDbEntity
 67
     1
  8
0
100
AcDbTrace
 10
2472.715862084504
 20
328.9515235374693
 30
0.0
 11
2472.715862084504
 21
328.9515235374693
 31
0.0
 12
2472.715862084504
 22
328.9515235374693
 32
0.0
 13
2472.715862084504
 23
328.9515235374693
 33
0.0
  0
TRACE
  5
1FE8
330
1FB4
100
AcDbEntity
 67
     1
  8
0
100
AcDbTrace
 10
1952.715862084503
 20
330.9515235374693
 30
0.0
 11
1952.715862084503
 21
326.9515235374693
 31
0.0
 12
2472.715862084504
 22
330.9515235374693
 32
0.0
 13
2472.715862084504
 23
326.9515235374693
 33
0.0
  0
TRACE
  5
1FE9
330
1FB4
100
AcDbEntity
 67
     1
  8
0
100
AcDbTrace
 10
2472.715862084504
 20
330.9515235374693
 30
0.0
 11
2472.715862084504
 21
326.9515235374693
 31
0.0
 12
2472.715862084504
 22
330.9515235374693
 32
0.0
 13
2472.715862084504
 23
326.9515235374693
 33
0.0
  0
TRACE
  5
1FEA
330
1FB4
100
AcDbEntity
 67
     1
  8
0
100
AcDbTrace
 10
3290.715862084504
 20
408.9515235374692
 30
0.0
 11
3286.715862084503
 21
408.9515235374692
 31
0.0
 12
3290.715862084504
 22
248.9515235374692
 32
0.0
 13
3286.715862084503
 23
248.9515235374692
 33
0.0
  0
TRACE
  5
1FEB
330
1FB4
100
AcDbEntity
 67
     1
  8
0
100
AcDbTrace
 10
3290.715862084504
 20
210.9515235374693
 30
0.0
 11
3286.715862084503
 21
206.9515235374693
 31
0.0
 12
3296.715862084504
 22
210.9515235374693
 32
0.0
 13
3296.715862084504
 23
206.9515235374693
 33
0.0
  0
TRACE
  5
1FEC
330
1FB4
100
AcDbEntity
 67
     1
  8
0
100
AcDbTrace
 10
2006.715862084504
 20
328.9515235374693
 30
0.0
 11
2010.715862084504
 21
328.9515235374693
 31
0.0
 12
2006.715862084504
 22
530.9515235374692
 32
0.0
 13
2010.715862084504
 23
526.9515235374692
 33
0.0
  0
TRACE
  5
1FED
330
1FB4
100
AcDbEntity
 67
     1
  8
0
100
AcDbTrace
 10
2006.715862084504
 20
530.9515235374692
 30
0.0
 11
2010.715862084504
 21
526.9515235374692
 31
0.0
 12
2016.715862084504
 22
530.9515235374692
 32
0.0
 13
2016.715862084504
 23
526.9515235374692
 33
0.0
  0
TRACE
  5
1FEE
330
1FB4
100
AcDbEntity
 67
     1
  8
0
100
AcDbTrace
 10
2384.715862084504
 20
530.9515235374692
 30
0.0
 11
2384.715862084504
 21
526.9515235374692
 31
0.0
 12
2394.715862084503
 22
530.9515235374692
 32
0.0
 13
2390.715862084503
 23
526.9515235374692
 33
0.0
  0
TRACE
  5
1FEF
330
1FB4
100
AcDbEntity
 67
     1
  8
0
100
AcDbTrace
 10
2394.715862084503
 20
530.9515235374692
 30
0.0
 11
2390.715862084503
 21
526.9515235374692
 31
0.0
 12
2394.715862084503
 22
86.95152353746925
 32
0.0
 13
2390.715862084503
 23
90.95152353746925
 33
0.0
  0
TRACE
  5
1FF0
330
1FB4
100
AcDbEntity
 67
     1
  8
0
100
AcDbTrace
 10
2394.715862084503
 20
86.95152353746925
 30
0.0
 11
2390.715862084503
 21
90.95152353746925
 31
0.0
 12
2376.715862084504
 22
86.95152353746925
 32
0.0
 13
2376.715862084504
 23
90.95152353746925
 33
0.0
  0
TRACE
  5
1FF1
330
1FB4
100
AcDbEntity
 67
     1
  8
0
100
AcDbTrace
 10
3290.715862084504
 20
400.9515235374692
 30
0.0
 11
3286.715862084503
 21
400.9515235374692
 31
0.0
 12
3290.715862084504
 22
248.9515235374692
 32
0.0
 13
3286.715862084503
 23
248.9515235374692
 33
0.0
  0
TRACE
  5
1FF2
330
1FB4
100
AcDbEntity
 67
     1
  8
0
100
AcDbTrace
 10
3290.715862084504
 20
210.9515235374693
 30
0.0
 11
3286.715862084503
 21
206.9515235374693
 31
0.0
 12
3288.715862084504
 22
210.9515235374693
 32
0.0
 13
3288.715862084504
 23
206.9515235374693
 33
0.0
  0
TRACE
  5
1FF3
330
1FB4
100
AcDbEntity
 67
     1
  8
0
100
AcDbTrace
 10
3034.715862084504
 20
312.9515235374693
 30
0.0
 11
3030.715862084504
 21
312.9515235374693
 31
0.0
 12
3034.715862084504
 22
90.95152353746925
 32
0.0
 13
3030.715862084504
 23
94.95152353746926
 33
0.0
  0
TRACE
  5
1FF4
330
1FB4
100
AcDbEntity
 67
     1
  8
0
100
AcDbTrace
 10
3034.715862084504
 20
100.9515235374692
 30
0.0
 11
3030.715862084504
 21
100.9515235374692
 31
0.0
 12
3034.715862084504
 22
90.95152353746925
 32
0.0
 13
3030.715862084504
 23
86.95152353746925
 33
0.0
  0
TRACE
  5
1FF5
330
1FB4
100
AcDbEntity
 67
     1
  8
0
100
AcDbTrace
 10
3034.715862084504
 20
90.95152353746925
 30
0.0
 11
3030.715862084504
 21
86.95152353746925
 31
0.0
 12
3032.715862084504
 22
90.95152353746925
 32
0.0
 13
3032.715862084504
 23
86.95152353746925
 33
0.0
  0
TRACE
  5
1FF6
330
1FB4
100
AcDbEntity
 67
     1
  8
0
100
AcDbTrace
 10
3032.715862084504
 20
250.9515235374693
 30
0.0
 11
3032.715862084504
 21
246.9515235374692
 31
0.0
 12
3432.715862084503
 22
250.9515235374693
 32
0.0
 13
3432.715862084503
 23
246.9515235374692
 33
0.0
  0
TRACE
  5
1FF7
330
1FB4
100
AcDbEntity
 67
     1
  8
0
100
AcDbTrace
 10
3432.715862084503
 20
250.9515235374693
 30
0.0
 11
3432.715862084503
 21
246.9515235374692
 31
0.0
 12
3432.715862084503
 22
250.9515235374693
 32
0.0
 13
3432.715862084503
 23
246.9515235374692
 33
0.0
  0
TRACE
  5
1FF8
330
1FB4
100
AcDbEntity
 67
     1
  8
0
100
AcDbTrace
 10
3194.715862084504
 20
248.9515235374692
 30
0.0
 11
3190.715862084504
 21
248.9515235374692
 31
0.0
 12
3194.715862084504
 22
210.9515235374693
 32
0.0
 13
3190.715862084504
 23
206.9515235374693
 33
0.0
  0
TRACE
  5
1FF9
330
1FB4
100
AcDbEntity
 67
     1
  8
0
100
AcDbTrace
 10
3194.715862084504
 20
210.9515235374693
 30
0.0
 11
3190.715862084504
 21
206.9515235374693
 31
0.0
 12
3192.715862084503
 22
210.9515235374693
 32
0.0
 13
3192.715862084503
 23
206.9515235374693
 33
0.0
  0
MTEXT
  5
1FFA
330
1FB4
100
AcDbEntity
 67
     1
  8
0
100
AcDbMText
 10
1960.715862084503
 20
320.9515235374693
 30
0.0
 40
20.0
 41
440.0
 71
     1
 72
     5
  1
{\fTimes New Roman|b0|i0|c186|p18;Parengė}
 73
     1
 44
1.0
  0
MTEXT
  5
1FFB
330
1FB4
100
AcDbEntity
 67
     1
  8
0
100
AcDbMText
 10
1960.715862084503
 20
280.9515235374693
 30
0.0
 40
20.0
 41
272.0
 71
     1
 72
     5
  1
{\fTimes New Roman|b0|i0|c186|p18;Tikrino}
 73
     1
 44
1.0
  0
MTEXT
  5
1FFC
330
1FB4
100
AcDbEntity
 67
     1
  8
0
100
AcDbMText
 10
1960.715862084503
 20
160.9515235374692
 30
0.0
 40
20.0
 41
200.0
 71
     1
 72
     5
  1

 73
     1
 44
1.0
  0
MTEXT
  5
1FFD
330
1FB4
100
AcDbEntity
 67
     1
  8
0
100
AcDbMText
 10
1960.715862084503
 20
120.9515235374692
 30
0.0
 40
20.0
 41
288.0
 71
     1
 72
     5
  1

 73
     1
 44
1.0
  0
MTEXT
  5
1FFE
330
1FB4
100
AcDbEntity
 67
     1
  8
0
100
AcDbMText
 10
1960.715862084503
 20
360.9515235374693
 30
0.0
 40
20.0
 41
120.0
 71
     1
 72
     5
  1
{\fTimes New Roman|b0|i0|c186|p18;Pak.}
 73
     1
 44
1.0
  0
MTEXT
  5
1FFF
330
1FB4
100
AcDbEntity
 67
     1
  8
0
100
AcDbMText
 10
2016.715862084504
 20
360.9515235374693
 30
0.0
 40
20.0
 41
272.0
 71
     1
 72
     5
  1
{\fTimes New Roman|b0|i0|c186|p18;Lapas}
 73
     1
 44
1.0
  0
MTEXT
  5
2000
330
1FB4
100
AcDbEntity
 67
     1
  8
0
100
AcDbMText
 10
2128.715862084503
 20
360.9515235374693
 30
0.0
 40
20.0
 41
240.0
 71
     1
 72
     5
  1
{\fTimes New Roman|b0|i0|c186|p18;Dok.Nr.}
 73
     1
 44
1.0
  0
MTEXT
  5
2001
330
1FB4
100
AcDbEntity
 67
     1
  8
0
100
AcDbMText
 10
2280.715862084504
 20
360.9515235374693
 30
0.0
 40
20.0
 41
184.0
 71
     1
 72
     5
  1
{\fTimes New Roman|b0|i0|c186|p18;Parašas}
 73
     1
 44
1.0
  0
MTEXT
  5
2002
330
1FB4
100
AcDbEntity
 67
     1
  8
0
100
AcDbMText
 10
2400.715862084504
 20
360.9515235374693
 30
0.0
 40
20.0
 41
152.0
 71
     1
 72
     5
  1
{\fTimes New Roman|b0|i0|c186|p18;Data}
 73
     1
 44
1.0
  0
MTEXT
  5
2003
330
1FB4
100
AcDbEntity
 67
     1
  8
0
100
AcDbMText
 10
3056.715862084504
 20
400.9515235374692
 30
0.0
 40
20.0
 41
184.0
 71
     1
 72
     5
  1
{\fTimes New Roman|b0|i0|c186|p18;Raidė}
 73
     1
 44
1.0
  0
MTEXT
  5
2004
330
1FB4
100
AcDbEntity
 67
     1
  8
0
100
AcDbMText
 10
3040.715862084504
 20
240.9515235374692
 30
0.0
 40
20.0
 41
216.0
 71
     1
 72
     5
  1
{\fTimes New Roman|b0|i0|c186|p18;Lapas}
 73
     1
 44
1.0
  0
MTEXT
  5
2005
330
1FB4
100
AcDbEntity
 67
     1
  8
0
100
AcDbMText
 10
3176.715862084503
 20
400.9515235374692
 30
0.0
 40
20.0
 41
200.0
 71
     1
 72
     5
  1
{\fTimes New Roman|b0|i0|c186|p18;Svoris}
 73
     1
 44
1.0
  0
MTEXT
  5
2006
330
1FB4
100
AcDbEntity
 67
     1
  8
0
100
AcDbMText
 10
3296.715862084504
 20
400.9515235374692
 30
0.0
 40
20.0
 41
192.0
 71
     1
 72
     5
  1
{\fTimes New Roman|b0|i0|c186|p18;Mąstelis}
 73
     1
 44
1.0
  0
MTEXT
  5
2007
330
1FB4
100
AcDbEntity
 67
     1
  8
0
100
AcDbMText
 10
2099.968325960726
 20
227.8742144294836
 30
0.0
 40
20.0
 41
177.76
 71
     4
 72
     5
  1

 73
     1
 44
1.0
  0
MTEXT
  5
2008
330
1FB4
100
AcDbEntity
 67
     1
  8
0
100
AcDbMText
 10
2102.368325960726
 20
317.1529057300677
 30
0.0
 40
20.0
 41
1008.0
 71
     1
 72
     5
  1
{\fTimes New Roman|b0|i0|c186|p18;E.Tuzinas}
 73
     1
 44
1.0
  0
MTEXT
  5
2009
330
1FB4
100
AcDbEntity
 67
     1
  8
ISKL
100
AcDbMText
 10
3113.515862084504
 20
142.5515235374692
 30
0.0
 40
20.0
 41
6.4
 71
     1
 72
     5
  1

 73
     1
 44
1.0
  0
MTEXT
  5
200A
330
1FB4
100
AcDbEntity
 67
     1
  8
0
100
AcDbMText
 10
3155.291248029387
 20
225.6622442277212
 30
0.0
 40
20.0
 41
64.66889999999999
 71
     5
 72
     5
  1
{\fTimes New Roman|b0|i0|c186|p18;1}
 73
     1
 44
1.0
  0
MTEXT
  5
200B
330
1FB4
100
AcDbEntity
 67
     1
  8
0
100
AcDbMText
 10
3359.715862084504
 20
230.9515235374693
 30
0.0
 40
22.5
 41
146.0
 71
     5
 72
     5
  1
{\fTimes New Roman|b0|i0|c186|p18;1}
 73
     1
 44
1.0
  0
MTEXT
  5
200C
330
1FB4
100
AcDbEntity
 67
     1
  8
0
100
AcDbMText
 10
3203.833482568076
 20
240.9515235374692
 30
0.0
 40
20.0
 41
216.0
 71
     1
 72
     5
  1
{\fTimes New Roman|b0|i0|c186|p18;Lapų}
 73
     1
 44
1.0
  0
MTEXT
  5
200D
330
1FB4
100
AcDbEntity
 67
     1
  8
0
100
AcDbMText
 10
2183.715862084504
 20
106.9515235374692
 30
0.0
 40
20.0
 41
178.0
 71
     5
 72
     5
  1

 73
     1
 44
1.0
  0
MTEXT
  5
200F
330
1FB4
100
AcDbEntity
 67
     1
  8
0
100
AcDbMText
 10
2753.828711055293
 20
306.9507610604769
 30
0.0
 40
40.0
 41
560.0
 71
     5
 72
     5
  1
{\fTimes New Roman|b0|i0|c186|p18;Lanksti jungtis\PLJ_PG \P(}VKO{\fTimes New Roman|b0|i0|c186|p18; ventiliatoriams)}
 73
     1
 44
1.0
  0
MTEXT
  5
2010
330
1FB4
100
AcDbEntity
 67
     1
  8
0
100
AcDbMText
 10
2750.715862084504
 20
147.9515235374692
 30
0.0
 40
30.0
 41
560.0
 71
     5
 72
     5
  1
{\fTimes New Roman|b0|i0|c186|p18;Surinkimo brėžinys}
 73
     1
 44
1.0
  0
MTEXT
  5
2011
330
1FB4
100
AcDbEntity
 67
     1
  8
0
100
AcDbMText
 10
3363.150447258869
 20
155.4246432907524
 30
0.0
 40
30.0
 41
402.0
 71
     6
 72
     5
  1
{\fTimes New Roman|b0|i0|c186|p18;TŪB\fTimes New Roman|b0|i0|c0|p18;"SALDA"}
 73
     1
 44
1.0
  0
MTEXT
  5
2012
330
1FB4
100
AcDbEntity
 67
     1
  8
0
100
AcDbMText
 10
2102.368325960726
 20
279.1529057300677
 30
0.0
 40
20.0
 41
1008.0
 71
     1
 72
     5
  1
{\fTimes New Roman|b0|i0|c186|p18;G.Taujenis}
 73
     1
 44
1.0
  0
ENDSEC
  0
SECTION
  2
OBJECTS
  0
DICTIONARY
  5
10E8
330
0
100
AcDbDictionary
281
     1
  3
ACAD_COLOR
350
10F7
  3
ACAD_GROUP
350
10E9
  3
ACAD_LAYOUT
350
10F5
  3
ACAD_MATERIAL
350
10F6
  3
ACAD_MLINESTYLE
350
10F2
  3
ACAD_PLOTSETTINGS
350
10F4
  3
ACAD_PLOTSTYLENAME
350
10EA
  0
DICTIONARY
  5
10F7
102
{ACAD_REACTORS
330
10E8
102
}
330
10E8
100
AcDbDictionary
281
     1
  0
DICTIONARY
  5
10E9
102
{ACAD_REACTORS
330
10E8
102
}
330
10E8
100
AcDbDictionary
281
     1
  0
DICTIONARY
  5
10F5
102
{ACAD_REACTORS
330
10E8
102
}
330
10E8
100
AcDbDictionary
281
     1
  3
1
350
246F
  3
A3
350
1FB3
  3
Layout1
350
10FB
  3
Model
350
10FF
  0
DICTIONARY
  5
10F6
102
{ACAD_REACTORS
330
10E8
102
}
330
10E8
100
AcDbDictionary
281
     1
  0
DICTIONARY
  5
10F2
102
{ACAD_REACTORS
330
10E8
102
}
330
10E8
100
AcDbDictionary
281
     1
  3
Standard
350
10F3
  0
DICTIONARY
  5
10F4
102
{ACAD_REACTORS
330
10E8
102
}
330
10E8
100
AcDbDictionary
281
     1
  0
ACDBDICTIONARYWDFLT
  5
10EA
102
{ACAD_REACTORS
330
10E8
102
}
330
10E8
100
AcDbDictionary
281
     1
  3
Normal
350
10EB
100
AcDbDictionaryWithDefault
340
10EB
  0
LAYOUT
  5
246F
102
{ACAD_REACTORS
330
10F5
102
}
330
10F5
100
AcDbPlotSettings
  1

  2
KONICA MINOLTA 211
  4
A4
  6

 40
6.254749774932861
 41
6.254741191864013
 42
6.2547607421875
 43
6.2547607421875
 44
210.0156707763672
 45
297.0106506347656
 46
0.0
 47
10.0
 48
272.7158620845035
 49
88.95152353746926
140
3432.715862084503
141
2384.951523537469
142
1.0
143
11.62495385959743
 70
   688
 72
     1
 73
     1
 74
     4
  7

 75
     0
147
0.0860218468028079
 76
     1
 77
     2
 78
   300
148
-272.7158620845035
149
-88.95152353746926
100
AcDbLayout
  1
1
 70
     1
 71
     2
 10
83.75501845777804
 20
16.24034600054733
 11
3536.490127895941
 21
2457.662828568221
 12
0.0
 22
0.0
 32
0.0
 14
112.6261636149493
 24
48.9486180147278
 34
-0.0000000349181948
 15
3472.847191338762
 25
2424.9545679228
 35
0.0000000814935746
146
0.0
 13
0.0
 23
0.0
 33
0.0
 16
1.0
 26
0.0
 36
0.0
 17
0.0
 27
1.0
 37
0.0
 76
     0
330
240E
331
2410
  0
LAYOUT
  5
1FB3
102
{ACAD_REACTORS
330
10F5
102
}
330
10F5
100
AcDbPlotSettings
  1

  2
KONICA MINOLTA 211
  4
A4
  6

 40
6.254749774932861
 41
6.254741191864013
 42
6.2547607421875
 43
6.2547607421875
 44
210.0156707763672
 45
297.0106506347656
 46
0.0
 47
10.0
 48
272.7158620845035
 49
88.95152353746926
140
3432.715862084503
141
2384.951523537469
142
1.0
143
11.62495385959743
 70
   688
 72
     1
 73
     1
 74
     4
  7

 75
     0
147
0.0860218468028079
 76
     1
 77
     2
 78
   300
148
-272.7158620845035
149
-88.95152353746926
100
AcDbLayout
  1
A3
 70
     1
 71
     3
 10
83.75501845777804
 20
16.24034600054733
 11
3536.490127895941
 21
2457.662828568221
 12
0.0
 22
0.0
 32
0.0
 14
112.6261636149493
 24
48.9486180147278
 34
-0.0000000000112498
 15
3472.847191338762
 25
2424.9545679228
 35
0.0000000000002956
146
0.0
 13
0.0
 23
0.0
 33
0.0
 16
1.0
 26
0.0
 36
0.0
 17
0.0
 27
1.0
 37
0.0
 76
     0
330
1FB4
331
1FB5
  0
LAYOUT
  5
10FB
102
{ACAD_REACTORS
330
10F5
102
}
330
10F5
100
AcDbPlotSettings
  1

  2
C:\Documents and Settings\sarunass\Application Data\Autodesk\AutoCAD LT 2004\R9\enu\plotters\Default Windows System Printer.pc3
  4
A4
  6

 40
5.873749732971191
 41
5.662077903747558
 42
7.99041748046875
 43
5.873748779296875
 44
209.9733276367187
 45
296.9683227539062
 46
0.0
 47
0.0
 48
0.0
 49
0.0
140
0.0
141
0.0
142
1.0
143
1.0
 70
   688
 72
     0
 73
     1
 74
     5
  7

 75
    16
147
1.0
 76
     0
 77
     2
 78
   300
148
0.0
149
0.0
100
AcDbLayout
  1
Layout1
 70
     1
 71
     1
 10
-0.2312499519408218
 20
-0.2312499894870548
 11
11.46041629821296
 21
8.035416452903447
 12
0.0
 22
0.0
 32
0.0
 14
1.123749984530952
 24
0.7720833087530661
 34
0.0
 15
10.11374986077857
 25
6.948749778777596
 35
0.0
146
0.0
 13
0.0
 23
0.0
 33
0.0
 16
1.0
 26
0.0
 36
0.0
 17
0.0
 27
1.0
 37
0.0
 76
     0
330
10F8
331
1B27
  0
LAYOUT
  5
10FF
102
{ACAD_REACTORS
330
10F5
102
}
330
10F5
100
AcDbPlotSettings
  1

  2
C:\Documents and Settings\sarunass\Application Data\Autodesk\AutoCAD LT 2004\R9\enu\plotters\Default Windows System Printer.pc3
  4

  6

 40
0.0
 41
0.0
 42
0.0
 43
0.0
 44
0.0
 45
0.0
 46
0.0
 47
0.0
 48
0.0
 49
0.0
140
0.0
141
0.0
142
1.0
143
1.0
 70
  1712
 72
     0
 73
     0
 74
     0
  7

 75
     0
147
1.0
 76
     0
 77
     2
 78
   300
148
0.0
149
0.0
100
AcDbLayout
  1
Model
 70
     1
 71
     0
 10
0.0
 20
0.0
 11
12.0
 21
9.0
 12
0.0
 22
0.0
 32
0.0
 14
0.0
 24
0.0
 34
0.0
 15
0.0
 25
0.0
 35
0.0
146
0.0
 13
0.0
 23
0.0
 33
0.0
 16
1.0
 26
0.0
 36
0.0
 17
0.0
 27
1.0
 37
0.0
 76
     0
330
10FC
  0
MLINESTYLE
  5
10F3
102
{ACAD_REACTORS
330
10F2
102
}
330
10F2
100
AcDbMlineStyle
  2
STANDARD
 70
     0
  3

 62
   256
 51
90.0
 52
90.0
 71
     2
 49
0.5
 62
   256
  6
BYLAYER
 49
-0.5
 62
   256
  6
BYLAYER
  0
ACDBPLACEHOLDER
  5
10EB
102
{ACAD_REACTORS
330
10EA
102
}
330
10EA
  0
ENDSEC
  0
EOF
